&title=ギターと孤独と蒼い惑星
&artist=結束バンド
&first=0
&des=Hanako
&lv_5=13+
&inote_1=
&inote_5=(193)
{8},,,2h[8:13],,,,,
{4}E1,E8,E7,E6,
{8}6<8[8:1],6,3,3h[8:2],,1,8,7h[8:6],
{8},E8,,E7/B6,,4,4h[8:2],,
{8}8<6[8:1],8,2,2h[8:2],,5-1[8:1],,4-8[8:1],
{8},3-7[8:1],,,,1b,1b,,
{8}2v3[8:1],2,7,7h[8:2],,5,4,3h[8:6],
{8},E4,,E3/B2,,8,8x/1x-5[8:1],,
{4}1/8-4[8:1],8/1>4[8:1],1/8<5[8:1],8/1-5[8:1]b,
{4}1/8-4[8:1]b,8/1>4[8:1]b,1/8<5[8:1]b,8/1,
{4}1b-7-5[8:10]*-5[8:10]/8,,,,
{4},,,,
{4}4/6-8-2[8:4],4,4,4,
{4}4/2<6[8:4]b,4,4,4,
{4}6/4-2-8[8:4],6,6,6,
{4}6/8>4[8:4]b,6,6,6,
{4}7h[8:6],E5,E4,E3,
{4}2/8-4<6[8:4],2,2,2,
{4}7/2-6>3[8:4],7,7,7,
{16}2/8,,,,1/7,,,,3/6,,3/6,,,,4,5,
{8}4b,,3/5,2,1/8,7,4/6,3,
{4}2x-5[8:1]/1x-5[8:1],1/2,8x-4[8:1]b/7x-4[8:1]b,7/8,
{8}3h[8:4],,6,7,8h[8:4],,3,2,
{8}1h[8:4],,8,7,6h[8:4],,1,2,
{4}3h[8:6],E7,E8,8-6-4[8:2],
{4}4-2-8[8:2],8<4[8:2],4>8[8:2],8-2-4-6[8:3]b,
{4}4-6-8[8:2],8>4[8:2],4<8[8:2],8>8[8:4],
{8}2xh[8:4],,,,,1b,1b,,
{4}2x>6>2[8:12],,,7,
{4}8h[8:4],,,,
{4}E1,E8,E7,E6,
{8}4h[8:4],,,5x,5x,,,,
{4}6-8-2-8-6[8:12]b,,,3,
{4}4h[8:4],,,,
{4}E5,E4,E3,E2,
{4}1/8,2/7,3>1[8:1]/6<8[8:1],,
{8}2h[8:4]/1,,8-4[8:1],7,8,,5x,,
{8}6h[8:4]/5,,4-8[8:1],3,4,,1x,,
{4}2/8h[8:2],4,1h[8:2]/7,5-8[8:2],
{4}8-3[8:2],3-7[8:2],7-2[8:2],2-5-8[8:4],
{4}4h[8:4],,,7/4,
{8}5,6,5,,,,1/2,,
{16}3x/8x,,2,1,2,,1x/6x,,7,8,7,,3x/6x,,4,5,
{16}4,,3x/6x,,2,7,2,7,3,6,3,6,3,6,3,6,
{4}E5,B4/B5,B3/E3/B6/E7,1-5[8:1]/7h[8:16],
{4}1b,8-6[8:1],8,1-5[8:1],
{4}1,2-4[8:1],2,1>4[8:2],
{4}4-8[8:2],8<5[8:2],5-1[8:2],1>4[8:2],
{8}4,,,6,3,7,2,8<5[8:1],
{8}5,8,,1>4[8:1],4,1,,5-8[8:1]*-2[8:1],
{8}4x/6x,5,,7,3,6,4,5,
{4}5<1[8:2],1>5[8:2],5<1[8:2]b,1>5[8:2]b,
{4}5s1[8:2]b,,3,4,
{4}6/5-2[8:1],5/4,5-8[8:1],6/5,
{4}5-2[8:1],5/4,5-8[8:1],6/5,
{4}1>4[8:1]/5<8[8:1],1/5,3-6[8:1]/7-2[8:1],3/7,
{4}4b>5[8:3]b/5b,,,2x-7[8:1],
{4}2/6-3[8:1],6/1-5[8:1],1/7-4[8:1],7/2-6[8:1],
{4}2/7-3[8:1],7/4-8[8:1],4/5-1[8:1],5/3,
{8}4h[8:6],,7,,1,,3,,
{8}5h[8:6],,8,,6,,3,,
{8}5/1,5,6/2,6,7/3,7,8/4,8,
{8}1-3v4[8:3]/3-1-5[8:3],1b/3b,,,,,,,
{8}6h[8:2],5,4,3h[8:2],6,7,8h[8:2],3,
{8}2,1h[8:2],8,7,6>4[8:1]/1>3[8:1],,,,
{8}3xh[8:2],4,5,6,7h[8:1],3,2,1/7,
{8}3,2/8,6,2z6[8:2]b/7s3[8:2],2/7,,,,
{8}4x-1[8:1]*-7[8:1],4,,,8xv5[8:1]/2xv5[8:1],8/2,,,
{4}1>8[8:4],Cf,,,
{16}1xb,2,3,4,1xb-4[8:1],8,7,6,1xb-6[8:1],,,,1xb,,,,
{16}5xb,4,3,2,5xb>2[8:1],6,7,8,5xb<8[8:1],,,,5xbw1[8:1]b,,,,
{16}5b,Cf,,,,,,,,,,,,,,,
{4},,,,
{4},,,,
{4},,,,
{4}Ch[8:8]/A1/B1/E1/E2,,,,
{4}E3/B3/A3/E4,,,,
{4}Ch[8:8]/B8/E8/B7,,,,
{4}B1/B2/E2/B5/E6/B6,,,,
{8}8h[8:8]/1h[8:2],,,2h[8:2],,,3,,
{4}4q1[8:4],,,,
{8}2h[8:6]/8h[8:2],,,7h[8:2],,,6h[8:8],,
{8}2h[8:2],,,3h[8:2],,,4h[8:6],,
{4}5h[8:4],,,E5,
{4}E4,E3,E2,E1,
{4}8x-4[8:14],,,,
{4}8hb[8:8],,,,
{4},E5,E4,E3,
{4},A3,A2,1-4[8:1]/7h[8:16],
{4}1b-6[8:1],1-5[8:1],1-4[8:1],1-6[8:1],
{4}1-5[8:1],1-4[8:1],1,3<6[8:2],
{4}6-2[8:2],2<7[8:2],7-3[8:2],3<6[8:2],
{8}6,,,7,5,6,4,5-2[8:1]*-8[8:1],
{8}4x/6x,5,,3>1[8:1]/7<5[8:1],4x/8x,3/7,,8-3[8:1]/4-7[8:1],
{8}1x/5x,8/4,,6,4,6,4,6,
{4}4>8[8:2],8<4[8:2],4>8[8:2]b,8<4[8:2]b,
{4}4z8[8:2]b,,7,8<5[8:1]/1,
{4}8b>3[8:1]/2,8p4[8:1]/6,8q4[8:1]/2,8<5[8:1]/6,
{4}8>3[8:1]/2,8p4[8:1]/6,8q4[8:1]/2,6,
{4}3-8[8:1]/7-4[8:1],3/7,1v3[8:1]/5v7[8:1],1/5,
{4}4b>5[8:3]b/5b,,,7x-2[8:1],
{4}7/3-6[8:1],3/8-4[8:1],8/2-5[8:1],2/7-3[8:1],
{4}7/2-6[8:1],2/5-1[8:1],5/4-8[8:1],4/6,
{8}5h[8:6],,2,,8,,6,,
{8}4h[8:6],,1,,3,,6,,
{8}4/8,4,3/7,3,2/6,2,1/5,1,
{8}8-3-6[8:3]b/4-1-6[8:3]b,8b/4b,,,,,,,
{8}3>1[8:1],3,6,6h[8:2],,8,1,2h[8:6],
{8},E2,,E3/B3,,5,5h[8:2],,
{8}1>3[8:1],1,7,7h[8:2],,4-8[8:1],,5-1[8:1],
{8},6-2[8:1],,,,8b,8b,,
{8}4xv1[8:1]*-7[8:1],4,,,8x<5[8:1]/2xv5[8:1],8/2,,,
{4}4>5[8:4]b,Cf,,,
{4}4/5<8[8:1],5/4>1[8:1],4/5<8[8:1],5/4>1[8:1]b,
{4}4/5<8[8:1]b,5/4>1[8:1]b,4/5<8[8:1]b,5/4,
{128}1x-7-3[8:8],3xb-5-1[8:8]b,,,,,,,,,,,,,,,,,,,,,,,,,,,,,,,
{4},,,
{8},,,,,2b,8b,3bv2-8-5-3[8:38]b/Ch[8:40],
{4},,,,
E
&inote_6=
