&title=Kung-gu Empire
&artist=飛馬65
&first=0.1
&des=5TAEGO3Z
&lv_5=13?
&inote_5=(177)
{16},,,,4,,3,,2,,1h[8:3],,,,,,
{16}8,,,,,1z5[8:1]/8s4[8:1],,,,,,,,,,,
{16}46,,6,5,7,,4,3,5,,6,5,8h[8:3],,,,
{16},,2,,8,1,7,,2V46[8:1],,,,2,,7,,
{16}8,,3,4,5h[8:1],,8,7,6h[8:1],,3,2,1h[8:1],,7,,
{16}1,2,3,4,5,,5,,15,48,37,26,1b/5b,,,,
{16}8,,8,,8`7,,,,1,,1,,1`2,,,,
{16}5,,5,,6`5,,,,4,,4,,3`4,,,,
{16}7,,7,,7`6,,,,2,,2,,2`3,,,,
{16}8,,8,,8`1,,,,4,,4,,4`5,,,,
{16}35,,3,2,1h[8:1],,2,3,4,5,6,,,,8,7,
{16}6h[8:1],,7,8,1,2,3,,,,,,,,,,
{16}6b-1[8:1]/2b-5[8:1],,,,,,,,8b-4[8:1],,,,8b-5[8:1]/5b-1[8:1],,,,
{16}5bV73[4:2]/8bV26[4:2],,,,,,,,,,,,,,,,
{16}8,,7,6,5h[8:1],,6,7,8,1,2,,,,4,3,
{16}2h[8:1],,3,4,5,6,7,,,,,,,,,,
{16}3b-8[8:1]/7b-4[8:1],,,,,,,,1b-6[8:1],,,,1b-4[8:1]/4b-7[8:1],,,,
{16}1bV73[4:2]/4bV26[4:2],,,,,,,,,,,,,,,,
{16}1-5[4:5],2,3,4h[16:21],,,,,,,,,,,,,
{16},,,,,,,,,,,,,,,,
{16}8h[16:3],,,2,8h[16:3],,,3,8h[16:3],,,4,8h[4:1],,,,
{16},,7,6,5h[8:9],,,,3,,3,,2,,2,,
{16}1h[4:1],,,,,,1,5,1h[8:4],,,,,,,,
{16}6b-1[8:1],,6b,,2b-5[8:1]/6b,,2b,,2b-7[8:1]/6b-3[8:1],,,,2bV41[4:1]/6bV85[4:1],,,,
{16}2b/6b,,,,,,,,1bV74[4:8]/8h[8:18],,,,,,,,
{16},,,,,,,,,,,,,,,,
{16},,,,,,,,,,,,,,,,
{16},,,,,,,,,,,,7v4[16#128:1]/1v4[16#128:1],26,35,4,
{16},,,,,,,,,,,,,,,,
{16},,,4,4,4h[16:3],,,,,,,,,,,
{16},,,,,,,,1b/7b,,,,,,,,
