&title=アマツカミ
&artist=a_hisa
&first=-0.01
&des=紅葉
&lv_5=14
&inote_5=(180)
{1},
{16}1-5[4:13],,,,,,,,,,,,,,,,
{16}5,,,,,,,,,,,,,,,,
{16}7,,,,,,,,1,,,,,,,,
{16}3x,,,,,,,,,,,,,,,,
{16}2^7[4:3],,,,,,,,,,,,,,,,
{16}6q3[4:3],,,,,,,,,,,,,,,,
{16}4q5[4:4],,,,,,,,,,,,,,,,
{16}C,,,,,,,,7x/2x,,,,,,,,
{16}3bxh[8:3]/4x,,,,,,6,,4,,,,46,,,,
{16}7h[8:3]/5,,,,,,3,,5,,,,35,,,,
{16}3/4h[8:3],,3,,,,2,,5,,,,25,,,,
{16}6/5,,6/5h[4:1],,,,8,,4,,6,,37,,,,
{16}2b-4[8:1],,8,,2,,1,,3-8[8:1],,8,,3,,7,,
{16}6-4[8:1],,8,,6,,1,,5-8[8:1],,2,,5,,4,,
{16}37,,37,,46,,46,,35,,35,,26,,26,,
{16}1,7,2,6,3,5,3,5,4h[16:1],6h[16:1],3h[16:1],7h[16:1],2xh[16:1],8xh[16:1],2xh[16:1],8xh[16:1],
{16}1bx<2[2:1],,,,,,,,8x-4b[8:1],,,,,,,,
{16}1xh[4:1],,,,4,,,,6h[4:1],,,,4,,,,
{16}3h[4:1],,,,8,,6,,4-1[32:5],,,,,,,,
{16}7h[4:1],,,,8,,,,2,,2h[4:1],,4,,5>2[32:5],,
{16}6h[4:1],,,,,,7,,1h[4:1],,,,3,,,,
{16}8h[4:1],,,,5,,,,3h[4:1],,,,5,,,,
{16}6h[4:1],,,,4,,2^7[32:5],,5h[4:1],,,,,,4,,
{16}7x-3[32:5],,,,6,,6,,8x-4[32:5],,,,3,,2,,
{16}1x-5[32:5],,1,,7,,8,,2bx>7[32:9],,,,,,,,
{16}1,,,,3/8h[4:1],,,,5,,,,1h[4:1]/7,,,,
{16}4^7[32:5],,,,3,,4,,5^2[32:5],,E1/B1,,E8/B7,,,,
{16}6,,,,5/2h[4:1],,,,3,,5,,1,,3,,
{16}7/4,,{24}E7,B6,B5,{16}E5,,1,,8,,B3/E4,,B7/E7,,C,,
{16}8,,,,6/1h[4:1],,,,4,,,,8h[4:1]/2,,,,
{16}5^2[32:5],,,,6,,5,,4^7[32:5],,E1/B8,,E2/B2,,,,
{16}3x,,,,7x/4,,5x,,6,,4x,,3x/5,,1,,
{16}4x,,3x,,4/6,,7x,,2x/1x,,{24}E3,B4,E6,8bx,,,,,,
{16}2b/7b-4[8:1],,,,8,,,,6/1-4[8:1],,7,,8,,,,
{16}2/7-2[8:1],,,,8,,,,4/1-4[8:1],,5,,6<2[4:1],,,,
{16}2x>6[4:1],,,,6<2[4:1],,,,2V46[4:1],,,,4qq7[32:15],,,,
{16},,,,8,,,,8x-4[8:1],,,,1x,,,,
{16}2x-5[8:1]/5x,,,,1<3[8:3],,,,3,,3V58[16:5],,,,1,,
{16}1-4[8:1],,,,,,,,7,,6,,35,,2,,
{16}1^4[8:1]/7,,,,8h[4:1],,,,5h[4:1],,,,3>5[8:3],,,,
{16}4h[2:1],,,,,,,,D4,D3,D2,D1,D8,D7,D6,D5,
{16}2b-5[8:1],,,,1,,,,3/8-5[8:1],,2,,1,,,,
{16}7/2-7[8:1],,,,1,,,,5/8-5[8:1],,4,,3V17[4:1],,,,
{16}7xV53[4:1],,,,3V17[4:1],,,,7<3[4:1],,,,5pp2b[32:15],,,,
{16},,,,1,,,,1x^4[8:1],,,,7x-3[8:1],,8,,
{16}7/5bx,,,,4^1[8:1],,,,{32}E8,E7,E6,,{16},,1x-5[8:1],,8,,
{16}7bx/1,,,,7^4[8:1],,,,{32}E3,E2,E1,,{16},,4x-8[8:1],,2,,
{16}4/3b,,,,7/5-1[8:1],,,,5/6b,,,,4^7[8:1]/8^3[8:1],,,,
{16}4b/8b,,,,1-5b[8:1]/5-1b[8:1],,,,{32}B1/B5,Cf,,,{16},,3x/7x,,,,
{16}2xh[8:3],,,,,,4,3,5h[8:3],,,,,,3,4,
{16}1xh[8:3],,,,,,8,1,7,,3,,5,,1,,
{16}4xh[8:3],,,,,,3,5,4h[8:2],,,,8h[4:1],,,,
{16}6xh[8:1],,7h[8:1],,4h[8:1],,5h[8:1],,2h[8:1],,3h[8:1],,4h[8:1],,5h[8:1],,
{16}1xh[8:3],,,,,,7,8,6h[8:3],,,,,,8,7,
{16}2xh[8:3],,,,,,1,2,4h[8:1],,1h[8:1],,6h[8:1],,5h[8:1],,
{16}1xh[8:3],,,,,,2,8,1h[8:2],,,,8,,2,,
{16}3bxh[2:1]/7bxh[4:3],,,,,,,,,,,,,,,,
{16}5b/6b,,7,,3,,2,4,2,,8,,83,,4,,
{16}45,,6,,1,,2,4,2,,8,,8/3x,,4,,
{16}4/7x,,6,,1,,2,4,2,,7,,73,,4,,
{16}46,,5,,1,,2,4,2,,7,,7/3x,,2,,
{16}1b/6bx,,2,8,3,7,4x,6x,4x,3,2,1,8x,7,6,5,
{16}4x/8x,,7,1,6,2,5x,3x,5x,6,7,8,1x,2,3,4,
{16}1x/5x,,1,6,2,5,3x,4x,3x,2,1,8,6,5,4,3,
{16}1bx,,7,2,6,1,7,4,5,2,6,4,8,2,{24}6,5,4-7-3-8[24:169],
{16}1b-6-2-5b[1:7],,,,,,,,,,,,,,,,
{16},,,,,,,,,,,,,,,,
{16},,,,,,,,,,,,,,,,
{16},,,,,,,,,,,,,,,,
{16},,,,,,,,,,,,,,,,
{16},,,,,,,,,,,,,,,,
{16},,,,,,,,,,,,,,,,
{16},,,,,,,,,,,,,,,,
{16}7b^5qq3[16:19],,,,,,,,,,,,,,,,
{16}1^3pp5[16:19],,,,,,,,,,,,,,,,
{16}8^5qq3[16:19],,,,,,,,,,,,,,,,
{16}8^3pp5[16:19],,,,,,,,,,,,,,,,
{16}1^6qq4[16:19],,,,,,,,,,,,,,,,
{16}1^4pp6[16:19],,,,,,,,,,,,,,,,
{16}7<8[1:1],,,,,,,,,,,,,,,,
{16}4h[4:3],,,,,,,,8-4b[8:1],,,,,,,,
{16}3x/5xh[8:2],,6,7,8-5[8:1],1,2,3,4q1b[32:5],,,,2,,,,
{16}4xh[8:2],,2,1,8-3[8:1],7,6,5,4p7b[32:5],,,,6,,,,
{16}5xh[8:2],,6,7,8-4[8:1],1,2,3,4p8b[8:1]*q8b[8:1],,,,,,,,
{16}7x,6,5,4,1,2,3,4,5x/6x,,7x,8x,7x-3[8:1],,1x,,
{16}1x,,,,2,5,2,5,1,2,3,4,2-6[8:1],3,4,5,
{16}6x,,,,7,4,7,4,8,7,6,5,7-3[8:1],6,5,4,
{16}3x-7[8:1],,,,1-5[8:1],,,,1^4b[8:1]*^6[8:1],,,,1,,,,
{16}2bx/8bx,,7,5,6,,3,5,4bh[16:3],,,5,4,,27,,
{16}1bx/8h[8:2],,7,6,5,4,3,2,1/5^2[8:1],6,7,8,1,,,,
{16}1xh[8:2]/8x,,2,3,4,5,6,7,8/4-8[8:1],3,2,1,8,,,,
{16}1bx,2,3,4,1bx/5x,6,7,8,4bx/1x,5,6,7,8x/4bx,1,2,3,
{16}4bx-1b[8:1]/8bx-5b[8:1],15,26,37,,,,,3x/7x,,6,5,6x-2[8:1],,7,,
{16}8b,,,,8,3,8,3,1x,2,3,4,8x-4[8:1],1,2,3,
{16}4bx-8[8:1],,,,2-6[8:1],,,,2^5b[8:1]*^7[8:1],,,,2,,,,
{16}8b,,7,5,6,,6,5,8b,,2,4,3,,3,4,
{16}1bx,4,3,4,2bx,5,4,5,3bx,6,5,6,{32}4bx,5,6,7,8,1,2,3,
{16}8b/4b,,6,,5,,7,1,7,,3,,3^6[8:1]/4,,,,
{16}5,,7,,8,,6,1,6,,2,,4/2^5[8:1],,,,
{16}6,,7,,8,,7,1,7,,2,,3^6[8:1]/4,,,,
{16}7,,7,,1^4[8:1],,6,6,1-5[8:1],,8,,1,,,,
{16}4x/6x,,3,5,2,6,1x,7x,1x,2,3,4,6x,7,8,1,
{16}5x,,5,7,4,8,3x,1x,3x,4,5,6,2x,3,4,5,
{16}1x,7,3,5,4,6,2,8,3,7,4,6,3,5,2,6,
{16}1x,7,8,7,6,7,5,7,{24}5bx,4,3,2,1,8,4bx,3,2,1,8,7,
{16}6bx<4b[2:1]/3bxh[1:1],,,,,,,,,,,,,,,,
{12}4-7[8:1],4,4,2-6[8:1],2,2,8-3[8:1],8,8,5-1b[8:1],5,5,
{32}1b/Cf,8bxp3b[32:63],7bxp2b[16:31],6bx,,,,,,,,,,,,,
E
