&title=Over Voltage
&artist=曲:R・O・N / 歌:高瀬 梨緒(CV:久保 ユリカ)
&first=0
&des=鹿目凛
&lv_5=14
&inote_5=(175)
{1},
{48}1b/8b,2x/7x,3x/6x,4x>5[4:14]/5xh[48:81],,,,,,,,,{4},,,{1},Ch[4:7],,
{8}1,,1,,8,,7,,6,5,47,3,4,25,1,8,
{8}67,67,45,45,23,21,81,78,
{16}1,8,2,7,3,6,4,5,{32}1,2,3,4,5,6,7,8,{4}1-5[10:1]*s5b[10:1],
{8}1b,,6,3>8[8:1]/7,,7<4[8:1]/3,,7/1h[4:1],,8,7/2-5[8:1],2,7-4[8:1],7,8,,
{8}1-5[8:1]/5,,1,6<1[8:1],,6/2>5[8:1],,2/7h[4:1],,8,2-6[8:1],1,8-4[8:1],7,6,,
{8}3/6-2[8:1],,6,1>5[8:1],,1<5[8:1]/7,,3/1-5[8:1],,1,7-4[8:1],7,2-5[8:1],2,1,,
{8}6/3-7[8:1],,3,8-4[8:1],,8w4[8:1],,8,,2-6[8:1],6-2[8:1],2b>3<4<5<6b[4:1],,,,,
{4}7<4[8:1],8,1<6[8:1],2,3-8[8:1],4-7[8:1],1V35[8:1],8,
{4}6<1[8:1],4,2>5[8:1],8,7-4[8:1],8-3[8:1],1V75[8:1],2,
{4}3z7[8:1],6,5s1[8:1],2,4q8[8:1],5p1[8:1],4w8[8:1],,
{4}2v4[8:1]/6v8[8:1],,3p7[8:1]/7p3[8:1],,8V24[8:1]/4V68[8:1],,{16}C/4x,3x,2x,1x,8x,7x,6x,5x,
{8}4x/8V64x[8:1],,3,,1-5[8:1],6,8,7,7-3[8:1],3,1,,8-3[10:1]/4-7[10:1],,48,,
{8}7V53[8:1]/3,,1,,8-4[8:1],7,5,6,6-2[8:1],3,5,,1-6[10:1]/5-2[10:1],,51,,
{8}}2V46[8:1]/6,,8,,7-3[8:1],5,4,5,2-6[8:1],3,4,,3-8[10:1]/5-8[10:1],,35,,
{4}1-4[10:1]/7-4[10:1],,1-5[10:1]/2-5[10:1],,8p4[10:1]*q4[10:1],,1-5b[10:1]*s5[10:1],1/Cf,
{4}3/6h[4:14],1-7[10:1],,2<8[10:1],,3-1[10:1],,4>2[10:1],,5-3[10:1],,7-5[10:1],,8,1w5[10:1],,
{8}Ch[8:14]/3,3,2,2,1,1,8,8,7,7,6,6,5,5,4,4,
{16}3,4,3,4,2,5,2,5,1,6,1,6,8,7,8,7,{32}1b,2,3,4,5,6,7,8,1b,2,3,4,5,6,7,8,{16}1b/5x,2x/6x,3x/7x,4x/8x,1x/5x,2,3,4,
{8}1bV35[8:1]/5,,1,8<3[8:1],,8,1,,2V46[8:1]/6,,2,1<4[8:1],,1,3,,
{4}2-6[8:1]/5h[8:4],,8-4[8:1],8/7<4[8:1],1-5[8:1]/7,1/8-4[8:1],8<5[8:1]/2>5[8:1],28,
{8}5/4V28[8:1],,4,5<2[8:1],,5,4-8[8:1],,5-1[8:1],,6-2[8:1],,7<2[8:1],,8,,
{4}8p1[8:1]/1q8[8:1],,8-4-2[8:1]/4-8-6[8:1],,2-5[10:1]/5-8[10:1],,3xv8b[10:1]/7xv4b[10:1],3x/7x,
{8}1b>5[8:1]/5b,,1,8V63[8:1],,8,1,,6/2>6[8:1],,2,1V74[8:1],,1,2,,
{8}1q5[8:1]/4h[8:4],,,,7q3[8:1],,7/5<2[8:1],,4V28[8:1],,4,7V53[8:1],,7,1h[8:6],,
{8}3q7[8:1],,,,8p3[8:1],,18,,8>5[8:1],,8,6<3[8:1],,6,5h[8:2],,
{4}1b<5[4:1],5>1[4:1],1b<4[4:1],4>4>2b[4:2],Cf,2<4[4:1],Cf,,
{8}1>5[8:1],,8,,7V53[8:1],3,2,,1q6[8:1]/5q2[8:1],,,,8<5[8:1]/5>2[8:1],,85,,
{4}2-6[8:1],2/1-5[8:1],1/8-4[8:1],87,1-5[8:1]/7-3[8:1],,2q6b[8:1]/6q2b[8:1],2b/6b,
{8}5V31[8:1]/1,,7,,7<3[8:1],8,1,,2-5[8:1]/4-7[8:1],,,,8/5qq1[16:5],,6,,
{4}6p3[32:9],2,1-4-7-2[4:1],5,{8}6<1[8:1],2x,2x,,1>4b[10:1]/8<5b[10:1],,,,
{8}45,,8-4[8:1]/7,,A8/E8/B8,,35,,2h[8:2],1,1-5[8:1],,A1/B1/E2,,4h[8:2]/6,,
{8}5,,1/2>6[8:1],,A2/B2/E3,,17,,2h[8:2],6,6V42[8:1],,A6/B6/E7,,8,,
{8}2h[8:2]/1,,1V75[8:1],,A1/B1/E2,,1hx[8:2]/5hx[8:2],,,37,3-7[8:1]/7-3[8:1],,A3/B3/E4/A7/B7/E8,,48,,
{8}2-5[10:1]/6-1[10:1],,,,3-8[10:1]/7-4[10:1],,,,4-8[10:1]/5-1[10:1],45,B5/B4/E5,,18,18,18,18,
{4}6bx/3bhx[4:8],8>4[8:1],,8<4[8:1],,8V24[8:1],,8V64[8:1],,8>1-3<4b[8:1],,8<7-5>4b[8:1],,8-4b[8:1],8w4b[8:1],8,
{16}3,4,2,4,1b,4,8,4,7,4,6,4,5b,4,3,4,2,4,2,5,2b,6,2,7,2,8,2,1,2b,3,2,4,
{16}3,4,2,5,8b,7,1,6,2b,1,3,8,5b,6,4,7,{32}1b,2,3,4,5,6,7,8,1b,2,3,4,5,6,7,8,{16}1b/5x,2x/6x,3x/7x,4x/8x,1x/5x,2,3,4,
{1}1bx-3v1>5b[4:2]`5bx-7v5<1[4:2],4bxqq8>4[4:2]*bxqq8>4[4:2]`8bxqq4<8[4:2],
{4}5bx-2v4-1b[4:2]/1bx-6v8-5[4:2],,,,1bv4b[10:1]/8bv5[10:1],1b>4b[10:1]/8b<5[10:1],1b/8b,{16}4w8[10:1],4,4,4,
{8}4b/Cf,,,,1-5[10:1],8,7q3[10:1]/1>3[10:1],,7<5[10:1]/1p5[10:1],,1v4[10:1]/7v4[10:1],,17,,26,,
{4}{4}8p1[8:1]`1q8[8:1],,8-4-2[8:1]`4-8-6[8:1],,2-5[10:1]`5-8[10:1],,3xv8b[10:1]/7xv4b[10:1],3x/7x,
{32}1w5b[10:1],2,3,4,5,6,7,8,1b,,,,,,,,A3,E4,B4,B5,A7,E7,B6,B5,A2,D3,A3,D4,A8,D8,A7,D7,{8}A6f/1bx-6>3b[8:1],,1x,7x>2-5b[8:1],,7x,4x,,3x-7b[10:1]/5x-1b[10:1],,,,1xs5b[10:1]/8xz4b[10:1],,1x/8x,,
{8}3x<6-1b[8:1]/7x,,3x,8x-5>2b[8:1],,8x,1hx[8:6],,
{8}8xp3b[10:1],,8x,,2x-7b[10:1]*-5b[10:1],,2x,,
{8}6xp5>7b[8:3],,6x,2hx[8:2],,,1hx[8:2],,
{4}6bx<5b[4:1],Cf,8bx>7[4:1],Cf,2bx<3b[4:1],Cf,8bx<1[4:1],,
{8}6hx[8:2],,4,35,3,13,3,37,7,47,7,7/8V64V28[16:5],78,,,,
{8}7h[8:2],,1,35,3,23,3,38,8,18,8,58,5-2b[10:1]*-8b[10:1],,5b,,
{8}12,2,23,3,34,24,46,56,68,56,45,34,13,34,45,56,
{16}7b,7,8,5,3b,3,1,4d,6b,6,8,4,2b,2,1,5,{32}8b,7x,6x,5x,1b,8x,7x,6x,2b,1x,8x,7x,3b,2x,1x,8x,{8}4b,4bs8b[10:1]/5b-1b[10:1],2b/7b,4b/5b/Cf,
{1},E
