&title=I believe what you said
&artist=Asaka
&first=0.02
&des=信你个鬼.
&des_5=信你个鬼.
&des_6=
&lv_5=13+
&inote_5=(138){4},{8},,,,,,4,
3,{4}3h[4:1],{8}5,3/5h[16:3],{16},3,,,{8}6/4h[4:1],
7,7,8,2h[4:1],7,{4}6,
{8}4,3,{4}3h[4:1],{8}5,3/5h[16:3],{16},3,,,{8}6/4h[4:1],
7,7,8,2,6,{16}3,5,,,{8}2b,
1,{4}1h[4:1],{8}7h[4:1],1,2,3,
{4}3h[4:1]/6-4[8:1],{8}6,2v5[8:1],,2,{4}8v5[8:1],
{8}8b,3,{4}2h[4:1],{8}5,6,1h[4:1],6,
{4}7-5[8:1],{8}3,2-6[8:1],,8,{4}7-4[8:1],
{8}3x,2,2/4,1,7/5,8,1-3[8:1],4,
8-4[8:1],6,2,1-5[8:1],3,7,{4}8-2[8:1],
{8}3,{16}3,4,{8}2,1/8,{16}7,5,6,6,3,3,4,2,
{1}3-5v2<6-2[4:3],
{8}4b,5,6/1,2/7,{4}3-5[8:1],{8}8,7,
6,4,5-3[8:1],2,,1-4[8:1],{4}6,
{8}5-3[8:1],6,8-4[8:1],1,{4}4-1[8:1],3qq6[4:1],
3,{8}8,7,2/6,1/5,8/4,5,
4-6[8:1],6,8-4[8:1],8,{4}2,{8}2-5[8:1],3,
{4}8-4[8:1],8,{8}3,3,2,2,
4-6[8:1],3,1-5[8:1],7,1,6,7,8,
{16}1,3,1,3,2,4,2,4,3,5,3,5,{24}4,6,4,6,4,6,
{2}3b>4[2:1],{8}C,8,{16},1,,,{8}7/2,
6-3b[8:1],,6h[8:3],,,,,{2}2<3[2:1],
{8}C,7,{16},6,,,{8}5,
4-1[8:1],,4/2,3b,{16}6,5/7,,2,{8}3/1,
{2}4b>5[2:1],{4}C,{8}8,7-5[8:1],
,7,4-8b[8:1],2/6,4,{16},,,,8,6,
{4}7-3[8:1],{8}1-6[8:1],2,,7<4>1[8:5],4,4h[8:5],
{16},,,,,,,,,,,,,,1,3,
{4}2b,{16}8b,6,{8}7b,,1b,,3,
2b-5>4b[8:1],4-1[8:1],6,7,8-5>6b[2:1],2,{4}8,
{8}5-1[8:1],5,,6,8-4[8:1],5/3,8-6[8:1],7,
8/2-4[8:1],4-8[8:1],2,5-7[8:1],7-2[8:1],,,1,
{4}3>1b[8:1]/5<7q4[4:1],3,{8}3,2-7[8:1],,2/5,
{4}8b,{8}7-5[8:1],8,2-4[8:1],1-5b[8:1],2>8[4:1],1,
{4}2b<8-5[4:1],2,{8}1,2,{4}3-6[8:1],
5b,6<2[4:1],2>6[4:1],6<2[4:1],
2b>6[4:1],6b<2[4:1],2b>6[4:1],{8}6b,7,
{4}8b-3>4[2:1],4-7[8:1],4,2-8[8:1],
{16}2/6-4[8:1],,,7,{8}1,3,2-6[8:1],4/8,2-4[8:1],1,
2/8-6[8:1],6-2[8:1],8,5-3[8:1],5,2-6[8:1],,2,
{4}4-7[8:1],{8}4,6h[4:1],,1-6[8:1],,1,
7b,5,6-4[8:1],7,2-4[8:1],1-5b[8:1],2>8[4:1],1,
A5f,6,5-3[16:1],2,8-4[8:1],7,1,3,
5b,{16}4,4h[16:3],{8}3>5[4:1],8,5,6,1,8,
{16}2,2,,4,{8}4,{16}3,3,,5,{8}5,4,3/5,
2-5[8:1],3,2/8-4[8:1],7-5[8:1],8,7,3-1[8:1],4,
{16}3,4,5,6,{8}7/1,{16}2,4,3,3,,7,{8}7,{16}5,5,
{4}6-4[8:1],7-3[8:1],{2}8w4[8:1],
{16}2b/6b,,,3/7,,,{8}4-6b[8:1]/8-4[8:1],{2}2/6,
{24}1,8,1,8,1,8,2,3,4,7,6,5,{2}1p8[4:1],
{8}5,6,{4}7<5[8:1],{8}2,1>3[8:1],8,1,
{4}7-3-1[4:1],{8}7/5,5-7-3[4:1],,5/3,{4}2-4[8:1],
{8}2b,8,{4}7-5[8:1],{8}3,2-6[8:1],4,2,
{4}3-7-5[4:1],{8}3/1,1-3-7[4:1],,1/7,{4}6-8[8:1],
{8}6b,1,2/4,2,7/5,8,1,1,
{4}7-3-1[4:1],{8}7/5,5-7-3[4:1],,5/3,{4}2-4[8:1],
{16}2b,6,7,8,5,6,7,8,1,5,2,6,3,7,4,8,
{1}5bs1b[2:1],
{2}3h[2:1],{4}2x,1h[4:1],
3h[4:3],2,1,2,
{2}6h[2:1],{4}7x,8h[4:1],
6h[4:3],7,8,7,
E
&inote_6=
