&title=Mermaid festa vol.2~Passionate~
&artist=新田恵海/飯田里穂
&first=0
&des=Lycoris
&lv_5=12+
&inote_5=(151)
{1},
(128)
{4},,
{64}6qq3[8:15],5,,,,,,,,,,,,,,,{4},,,
{4}2h[4:4],,,,
{16},,,,,,,,,,,,,,,,
{16}6h[2:1],,,,,,,,5,,,,,,,,
{16}3h[2:1],,,,,,,,4,,,,,,,,
{16}7h[2:1],,,,,,,,5h[2:1],,,,,,,,
{16}4h[2:1],,,,,,,,2h[2:1],,,,,,,,
{16}1q6[16:7],,,,,,,,,,,,,,,,
{16}46,,,,5,,,,35,,,,4,,,,
{16}2qq5[8:7]/7pp4[8:7],,,,,,,,,,,,,,,,
{16},,,,,,,,,,,,,,,,
{16}5^8[8:3],,,,,,,,4^1[8:3],,,,,,,,
{16}6^3[8:3],,,,,,,,7^2[8:3],,,,,,,,
{16}5p8[8:3],,,,,,,,4q1[8:3],,,,,,,,
{16}8h[2:1],,,,,,,,1,,,,,,,,
{16}56,,,,4,,3,,4,,,,5,,6,,
{16}5^2[8:3],,,,,,,,,,,,,,,,
{16}34,,,,5,,6,,5,,,,4,,3,,
{16}4<8[16:15]*>8[16:15],,,,,,,,,,,,,,,,
(151)
{4},,,,
{16}57,,4,5,2,,,,1-4[12:1]/8v5[12:1],,,,1b/8b,,,,
{16}27,,6,57,,1,8,,27,,3,24,,8,1,,
{16}27,,6,57,,1,8,,2v4[8:1]/7v5[8:1],,18,,27,,,,
{16}34,,1,28,,6,5,,78,,2,13,,5,4,,
{16}1b/8b,,,,,,,,3,4,3,,6,5,6,,
{16}4/5h[8:1],,3,5h[8:1],,2,5,,4/5h[8:1],,3,5h[8:1],,2,5,,
{16}4/5h[8:1],,3,5h[8:1],,2,5,,45,,45,,27,,,,
{16}5/4h[8:1],,6,4h[8:1],,7,4,,5/4h[8:1],,6,4h[8:1],,7,4,,
{16}5/4h[8:1],,6,4h[8:1],,7,4,,5-8[32:3]/4-1[32:3],,,,4b/5b,,,,
{16}2h[4:3]/7h[4:3],,,,,,,,,,,,,,4h[4:3]/5h[4:3],,
{16},,,,,,,,,,,,1b,,,,
{16}4h[16:3]/7,,,5,4,,35,,2h[16:3],,,1,2,,38,,
{16}7h[16:3],,,8,7,,16,,5^8[8:1],,4,,3,,,,
{16}8h[16:3]/3,,,1,8,,71,,6h[16:3],,,5,6,,74,,
{16}3h[16:3],,,4,3,,52,,1h[16:3],,,8,1,,27,,
{16}2/7-4[8:1],,,,3,,3^8[8:1],,,,5^8[8:1]*v2[8:1],,,,5b,,
{16},,3,4,3,,7,4,6,5,8,4,6,5,8,4,
{16}6^1[8:1],,,5,6,,4,,3^6[8:1],,,2,3,,1,,
{16}8^5[8:1],,,1,8,,2,,3^8[8:1],,,4,3,,5,,
{16}6^3[8:1],,,7,6,,8-4[8:1],,,,8^5[8:1]*^3[8:1],,,,8b,,
{16},,6,5,6,,2,5,3,4,1,5,3,4,1,5,
{16}3v5[16:3],,,5-2[8:1],3,,6,,7v1[16:3],,,1-6[8:1],7,,2,,
{16}3v5[16:3],,,5^2[8:1],3,,8,,1-5[8:1],,,8,1,,6,,
{16}4/7b,,3,4,,7,5,,18,,2p5[8:1],,34,,2,,
{16},,4,5,3,6,4,,1b/8b,,1h[4:1]/8h[4:1],,,,,,
{16}2h[8:1]/4,,,3/5h[8:1],,,4/7,,1v6[8:1]/5h[4:1],,,,,,,,
{16}7h[8:1]/5,,,6/4h[8:1],,,5/2,,8v3[8:1]/4h[4:1],,,,,,,,
{16}2h[8:1]/4,,,4/6h[8:1],,,5/8,,2^7[8:1]/6^3[8:1],,,,,,,,
{16}6-4[8:1]/2-4[8:1],,,,26,,,,3qq2[8:1]/5pp6[8:1],,,,3b/5b,,,,
{16}3h[8:1]/5,,,4/6h[8:1],,,5/8,,2v5[8:1]/6h[4:1],,,,,,,,
{16}6h[8:1]/4,,,5/3h[8:1],,,4/1,,7v4[8:1]/3h[4:1],,,,,,,,
{16}35,,6,5,7,,6,5,7,,6,5,8,,1,,
{16}28,,3,4,2,,3,4,2,,3,4,1,,8,,
{16}27,,6,5,,4,35,,2,,8,1,,7,68,,
{16}5,,3,4,,2,13,,7,8,6,2,1,3,5,4,
{16}8bpp5[2:1],,,,,,,,,,,,,,,,
{32}1,2,3,4,5,6,7,8,1,2,3,4,5,6,7,8,{16}1,,,45,36,,,,
{16}1b-6[8:1]/7b,,,3,1-4[8:1],,2,,1/5-2[8:1],,,7,5-8[8:1],,6,,
{16}5/1-4[8:1],,,3,1-6[8:1],,2,,1/5-8[8:1],,,7,5-2[8:1],,6,,
{16}1-6[8:1]/5,,,3,1-4[8:1],,2,,1/5-2[8:1],,,7,5-8[8:1],,6,,
{16}5/1-4[8:1],,,3,1-6[8:1],,2,,1/5-8[8:1],,,7,5>5[32:16],,6,,
{16}1bp4[32:8],,,,,,,,,,,,17,,26,,
{16}3p6[4:1]/5,,,,6>2[4:1],,,,2q7[4:1],,,,7>3[4:1],,,,
{16}3qq3[16:11]*pp3[16:11],,,,,,,,,,,,,,,,
{16},,,,6-1[8:1]/8-5[8:1],,,,6v3[8:1]/8v3[8:1],,,,68,,,,
{16}2-5[8:1],,5-1[8:1],,2,,7,,6,,2v3[8:1]/5,34,,,,,
{16}7^4[8:1],,4q8[8:1],,7,,2,,3,,7q6[16:3]/4,65,,,,,
{16}1,,,3,4,,45,,56,,,7,8,,18,,
{16}12,,,3,6,,45,,4b-7[8:1]/5b-2[8:1],,,,,,,,
{16}1-3[8:1],,,8,1-5[8:1],,7,,1-3[8:1],,,6,1-5[8:1],,7,,
{16}1,,,8,1,,27,,6^1[8:1]/4v2[8:1],,37,,46,,,,
{16}3b-8[8:1]/7b-4[8:1],,,,,,,,5b-8[8:1]/1b-4[8:1],,,,,,,,
{16}2b/5b,,,3b/8b,,,1b/6b,,4bq1[32:3]/5b^8[32:3],,,,4b/5b,,,,
{16}25,,6,47,,2,5,,38,,7,16,,3,8,,
{16}25,,3,46,,7,46,,3v6[8:1]/5v8[8:1],,17,,35,,,,
{16}25,,6,47,,2,5,,47,,3,25,,7,4,,
{16}1bv8[8:1]/7bp2[8:1],,,,,,,,3,4,3,,6,5,6,,
{16}7^4[8:1]/4,,,5,7,,3,,5/2^5[8:1],,,4,2,,6,,
{16}7-4[8:1]/4,,,5,7,,3,,5/2-5[8:1],,,4,2,,6,,
{16}7v4[8:1]/4,,,5,7,,3,,5/2v5[8:1],,,4,2,,6,,
{16}7-3[8:1]/4,,,5,7,,2,,1-5[8:1],,28,,1,,,,
{12}6,5,7,3,4,2,{16}7,8,7,8,6,1,6,1,
{16}5,,3,4,,2,1,,3p6[8:1]/8,,,,4b,,,,
{16}18,,,,2,5,3,4,2,6,3,4,2,7,4,5,
{16}2,7,5,6,1s5[4:1],8,5,6,,,,,8,,,,
{16}6-1[8:1]/4,,,5,6,,2,,5/3-8[8:1],,,4,3,,7,,
{16}6^1[8:1]/1,,,8,6,,2,,8/3^8[8:1],,,1,3,,7,,
{16}6v1[8:1]/1,,,8,6,,2,,8/3v8[8:1],,,1,3,,7,,
{16}1,6,2,5,3,6,4,7,5b-1[8:1],,,,,,,,
{16}8,2,6,5,7,4,6,5,7,1,5,4,6,3,5,4,
{16}8,1,4,3,6,5,8,1,2b/7b,,,,3,4,3,4,
{16}2b-5[8:1]/5b-8[8:1],,,,,,,,7b^4[8:1]/4b^1[8:1],,,,,,,,
{16}6b/8b,,,4b/7b,,,1b/5b,,3b>7[8:1]/7b<3[8:1],,,,3b/7b,,,,
{16}25,,6,47,,3,25,,38,,7,16,,2,38,,
{16}25,,3,46,,7,46,,35,,26,,7,8,7,8,
{16}61,,2,83,,6,51,,83,,25,,7,5,6,5,
{16}4b/7b,,,,,,,,,,,,,,,,
&inote_6=(151)
{1},
(128)
{4},,
{64}6qq3[8:15],5,,,,,,,,,,,,,,,{4},,,
{4}2h[4:4],,,,
{16},,,,,,,,,,,,,,,,
{16}6h[2:1],,,,,,,,5,,,,,,,,
{16}3h[2:1],,,,,,,,4,,,,,,,,
{16}7h[2:1],,,,,,,,5h[2:1],,,,,,,,
{16}4h[2:1],,,,,,,,2h[2:1],,,,,,,,
{16}1q6[16:7],,,,,,,,,,,,,,,,
{16}46,,,,5,,,,35,,,,4,,,,
{16}2qq5[8:7]/7pp4[8:7],,,,,,,,,,,,,,,,
{16},,,,,,,,,,,,,,,,
{16}5^8[8:3],,,,,,,,4^1[8:3],,,,,,,,
{16}6^3[8:3],,,,,,,,7^2[8:3],,,,,,,,
{16}5p8[8:3],,,,,,,,4q1[8:3],,,,,,,,
{16}8h[2:1],,,,,,,,1,,,,,,,,
{16}56,,,,4,,3,,4,,,,5,,6,,
{16}5^2[8:3],,,,,,,,,,,,,,,,
{16}34,,,,5,,6,,5,,,,4,,3,,
{16}4<8[16:15]*>8[16:15],,,,,,,,,,,,,,,,
(151)
{4},,,,
{16}57,,4,5,2,,,,1-4[12:1]/8v5[12:1],,,,1b/8b,,,,
{16}27,,6,57,,1,8,,27,,3,24,,8,1,,
{16}27,,6,57,,1,8,,2v4[8:1]/7v5[8:1],,18,,27,,,,
{16}34,,1,28,,6,5,,78,,2,13,,5,4,,
{16}1b/8b,,,,,,,,3,4,3,,6,5,6,,
{16}4/5h[8:1],,3,5h[8:1],,2,5,,4/5h[8:1],,3,5h[8:1],,2,5,,
{16}4/5h[8:1],,3,5h[8:1],,2,5,,45,,45,,27,,,,
{16}5/4h[8:1],,6,4h[8:1],,7,4,,5/4h[8:1],,6,4h[8:1],,7,4,,
{16}5/4h[8:1],,6,4h[8:1],,7,4,,5-8[32:3]/4-1[32:3],,,,4b/5b,,,,
{16}2h[4:3]/7h[4:3],,,,,,,,,,,,,,4h[4:3]/5h[4:3],,
{16},,,,,,,,,,,,1b,,,,
{16}4h[16:3]/7,,,5,4,,35,,2h[16:3],,,1,2,,38,,
{16}7h[16:3],,,8,7,,16,,5^8[8:1],,4,,3,,,,
{16}8h[16:3]/3,,,1,8,,71,,6h[16:3],,,5,6,,74,,
{16}3h[16:3],,,4,3,,52,,1h[16:3],,,8,1,,27,,
{16}2/7-4[8:1],,,,3,,3^8[8:1],,,,5^8[8:1]*v2[8:1],,,,5b,,
{16},,3,4,3,,7,4,6,5,8,4,6,5,8,4,
{16}6^1[8:1],,,5,6,,4,,3^6[8:1],,,2,3,,1,,
{16}8^5[8:1],,,1,8,,2,,3^8[8:1],,,4,3,,5,,
{16}6^3[8:1],,,7,6,,8-4[8:1],,,,8^5[8:1]*^3[8:1],,,,8b,,
{16},,6,5,6,,2,5,3,4,1,5,3,4,1,5,
{16}3v5[16:3],,,5-2[8:1],3,,6,,7v1[16:3],,,1-6[8:1],7,,2,,
{16}3v5[16:3],,,5^2[8:1],3,,8,,1-5[8:1],,,8,1,,6,,
{16}4/7b,,3,4,,7,5,,18,,2p5[8:1],,34,,2,,
{16},,4,5,3,6,4,,1b/8b,,1h[4:1]/8h[4:1],,,,,,
{16}2h[8:1]/4,,,3/5h[8:1],,,4/7,,1v6[8:1]/5h[4:1],,,,,,,,
{16}7h[8:1]/5,,,6/4h[8:1],,,5/2,,8v3[8:1]/4h[4:1],,,,,,,,
{16}2h[8:1]/4,,,4/6h[8:1],,,5/8,,2^7[8:1]/6^3[8:1],,,,,,,,
{16}6-4[8:1]/2-4[8:1],,,,26,,,,3qq2[8:1]/5pp6[8:1],,,,3b/5b,,,,
{16}3h[8:1]/5,,,4/6h[8:1],,,5/8,,2v5[8:1]/6h[4:1],,,,,,,,
{16}6h[8:1]/4,,,5/3h[8:1],,,4/1,,7v4[8:1]/3h[4:1],,,,,,,,
{16}35,,6,5,7,,6,5,7,,6,5,8,,1,,
{16}28,,3,4,2,,3,4,2,,3,4,1,,8,,
{16}27,,6,5,,4,35,,2,,8,1,,7,68,,
{16}5,,3,4,,2,13,,7,8,6,2,1,3,5,4,
{16}8bpp5[2:1],,,,,,,,,,,,,,,,
{32}1,2,3,4,5,6,7,8,1,2,3,4,5,6,7,8,{16}1,,,45,36,,,,
{16}1b-5[8:1]/7b,,,1,6-2[8:1],,8,,6^3[8:1]/7,,,6,8^3[8:1],,1,,
{16}8^5[8:1]/4,,,8,2-6[8:1],,4,,2/7-3[8:1],,,7,5-1[8:1],,4,,
{16}5^2[8:1]/7,,,5,8-4[8:1],,1,,3/8^5[8:1],,,2-6[8:1],8,,2,,
{16}5-1[8:1],,,5-8[8:1],6,,5,,4-8[8:1],,,4-1[8:1],3,,4,,
{16}8bq5[32:8],,,,,,,,,,,,17,,26,,
{16}3p6[4:1]/5,,,,6>2[4:1],,,,2q7[4:1],,,,7>3[4:1],,,,
{16}3qq3[16:11]*pp3[16:11],,,,,,,,,,,,,,,,
{16},,,,6-1[8:1]/8-5[8:1],,,,6v3[8:1]/8v3[8:1],,,,68,,,,
{16}2-5[8:1],,5-1[8:1],,2,,7,,6,,2v3[8:1]/5,34,,,,,
{16}7^4[8:1],,4q8[8:1],,7,,2,,3,,7q6[16:3]/4,65,,,,,
{16}1,,,3,4,,45,,56,,,7,8,,18,,
{16}12,,,3,6,,45,,4b-7[8:1]/5b-2[8:1],,,,,,,,
{16}1-3[8:1],,,8,1-5[8:1],,7,,1-3[8:1],,,6,1-5[8:1],,7,,
{16}1,,,8,1,,27,,6^1[8:1]/4v2[8:1],,37,,46,,,,
{16}3b-8[8:1]/7b-4[8:1],,,,,,,,5b-8[8:1]/1b-4[8:1],,,,,,,,
{16}2b/5b,,,3b/8b,,,1b/6b,,4bq1[32:3]/5b^8[32:3],,,,4b/5b,,,,
{16}25,,6,47,,2,5,,38,,7,16,,3,8,,
{16}25,,3,46,,7,46,,3v6[8:1]/5v8[8:1],,17,,35,,,,
{16}25,,6,47,,2,5,,47,,3,25,,7,4,,
{16}1bv8[8:1]/7bp2[8:1],,,,,,,,3,4,3,,6,5,6,,
{16}7^4[8:1]/4,,,5,7,,3,,5/2^5[8:1],,,4,2,,6,,
{16}7-4[8:1]/4,,,5,7,,3,,5/2-5[8:1],,,4,2,,6,,
{16}7v4[8:1]/4,,,5,7,,3,,5/2v5[8:1],,,4,2,,6,,
{16}7-3[8:1]/4,,,5,7,,2,,1-5[8:1],,28,,1,,,,
{12}6,5,7,3,4,2,{16}7,8,7,8,6,1,6,1,
{16}5,,3,4,,2,1,,3p6[8:1]/8,,,,4b,,,,
{16}18,,,,2,5,3,4,2,6,3,4,2,7,4,5,
{16}2,7,5,6,1s5[4:1],8,5,6,,,,,8,,,,
{16}6-1[8:1]/4,,,5,6,,2,,5/3-8[8:1],,,4,3,,7,,
{16}6^1[8:1]/1,,,8,6,,2,,8/3^8[8:1],,,1,3,,7,,
{16}6v1[8:1]/1,,,8,6,,2,,8/3v8[8:1],,,1,3,,7,,
{16}1,6,2,5,3,6,4,7,5b-1[8:1],,,,,,,,
{16}8,2,6,5,7,4,6,5,7,1,5,4,6,3,5,4,
{16}8,1,4,3,6,5,8,1,2b/7b,,,,3,4,3,4,
{16}2b-5[8:1]/5b-8[8:1],,,,,,,,7b^4[8:1]/4b^1[8:1],,,,,,,,
{16}6b/8b,,,4b/7b,,,1b/5b,,3b>7[8:1]/7b<3[8:1],,,,3b/7b,,,,
{16}25,,6,47,,3,25,,38,,7,16,,2,38,,
{16}25,,3,46,,7,46,,35,,26,,7,8,7,8,
{16}61,,2,83,,6,51,,83,,25,,7,5,6,5,
{16}4b/7b,,,,,,,,,,,,,,,,
