&title=It's Your Time
&artist=good-cool
&first=0.04
&des=LTCalter
&clock_count=4
&lv_5=13+
&inote_5=(128)
{1},,
{16}5/2b,,3h[8:1],,5,4h[16:9],,,6,,,6,,,7h[16:16],,
,,5,,,5,,,5,,,4,,,2h[16:16],,
,,4,,,4,,,5,,,7,,,1h[16:16],,
,,2,,,2,,,4,,,6,,,8,,
24,,2,,3,5h[8:1],,3,5h[8:1],,3,5h[8:1],,3,5,,
64,,6,,7,5h[8:1],,7,5h[8:1],,7,5h[8:1],,7,5,,
1/8h[8:1],,{24}2,3,4,{16}1h[8:1],,{24}6,5,4,{16}8h[8:1],,
{32}2,3,4,5,{16}1h[8:1],,{32}6,5,4,3,
{16}2bp8[8:3]/6bq8[8:3],,,,,,,,,,,,2b/6b,,,,
2-5[8:1],,2,,6-1[8:1],,6,,2^7[8:1]*^5[8:1],,,,,,,,
7-4[8:1]/8-4[8:1],,6,,,,,,7-4[8:1]/8-4[8:1],,6,,,,,,
3^8[8:1],,3,,6^3[8:1],,6,,1pp5[8:4],,,,6,,6h[8:3],,
,,,,,,,,5,7,5,,84,,3,,
2/7-4[8:1],,2,,1-5[8:1],,1,,6-1[8:1]*-3[8:1],,,,,,,,
2-5[8:1]/1-5[8:1],,3,,,,,,2-5[8:1]/1-5[8:1],,3,,,,,,
6^1[8:1],,6,,2-5[8:1],,2,,7,,7,,4,,4,,
6,3,8h[8:1],,2,1,2,8,3,1,5,7,4,6,2,4,
8b>6[8:12],,,,,,,,,,,,,,,,,,,,,,,,,,,,,,8,,
8<3[8:4],,,,3,,,,2,,,,2,,1,,
1,1,1,1,1,1,1,1,1-6[8:1]*-4[8:1],1,2,8,1b,,,,
53,,2,,64,,7,,2,4,3h[8:2],,5,,5,,
64,,7,,54,,2,,1-4[8:1],7,8,,6h[8:1],,,,
57,,8,,57,,6,,3,4,2h[8:2],,1,,8,,
7h[8:1],,5,,2h[8:1],,4pp5[8:2],,3,,1b,,,,2,,
46,,7,,35,,2,,7,5,6h[8:2],,4,,4,,
35,,2,,56,,8,,1^6[8:1],3,2,,4h[8:1],,,,
52,,1,,53,,4,,6,5,7h[8:2],,6,,4,,
3,4,2,,7,5,6,,2,4,2,4,1h[8:1],,7,7,
8b>5[8:2],,,,5,,7qq3[8:3],,,,3,,2,,1V35[8:2],,
,,5,,7,,7,,8q1[8:2],,,,,,,,
2,,2h[8:1],,8,,8h[8:1],,6,,5,,46,,53,,
2h[8:1],,4,,6h[8:1],,4,,2,4,3h[8:1],,5,,5,,
64,,7,,64,,8,,5h[8:1],,7h[8:1],,1,,2,,
83,,6,,24,,3,,5,4,5h[8:2],,3,,2,,
17,,8,,21,,3^6[8:1],,,,3/7h[8:2],,,,8,8,
5,1,7h[8:1],,2,4,1,8,3,6,5,8,3,7,2,6,
1b-5[8:1]/5b,,8,,1^4[8:1]/6^1[8:1],,,,6/1-5[8:1],,,,4,,3,,
2-4[8:1]/5-1[8:1],,14,,,,,,3-5[8:1]/6-2[8:1],,17,,,,,,
6^3[8:1],,7,,6/2pp1[8:2],,,,8,,,,7,,7,,
6h[8:1],,8,,7,1,8,,2,1,3,5,4h[8:1],,7,,
8-4[8:1]/4,,1,,8^5[8:1]/3^8[8:1],,,,3/8-4[8:1],,,,5,,6,,
7-5[8:1]/4-8[8:1],,85,,,,,,6-4[8:1]/3-7[8:1],,82,,,,,,
3^6[8:1],,2,,3/6pp5[8:2],,,,4,,,,2,,2,,
1,1,5,5,4,4,7,7,3,5,4,7,82,,82,,
1bq5[8:1]/5b,,8,,6^1[12:1],,7,,{24}6/1-5[8:1],2,3,{16},,4,,3,,
{24}2-4[8:1]/5-1[8:1],1,8,{16}4,,5,,,,{24}3-5[8:1]/6-2[8:1],2,1,{16}5,,6,,,,
6-3[8:1],,7,,6/2-5[8:1],,1,,8-5[8:1]/2,,7,,82,,1,,
6h[8:1],,8,,7,1,8,1,4,3,7,5,6/4h[8:1],,7,,
8p4[8:1]/4,,1,,3^8[8:1],,2,,{24}3/8-4[12:1],7,6,{16},,5,,6,,
{24}7-5[8:1]/4-8[8:1],8,1,{16}5,,4,,,,{24}6-4[8:1]/3-7[8:1],7,8,{16}4,,3,,,,
24,,3,,56,,7,,1,6,{24}4,5,3,{16}4,2,8,1,
7b<1[8:3],,,,,,,,,,4,,2b/6b,,,,
2,4,1,7,2,4,1,7,3^8[8:1],3,5^8[8:1],5,,,,,
2,1,3,5,2,1,3,5,1-4[8:1],1,7-4[8:1],7,,,,,
3b-5[16:1],,,6-3[16:1],,,2b-6[16:1],,,7-2[16:1],,,1b-5[8:1],,,,
5,,6,,3pp5[8:1]/7qq5[8:1],,,,3>7[16:3]/7>3[16:3],,,,,,,,
6b,,8,4,7,2,8,4,6qq4[8:1],6,1-5[8:1],1,,,,,
7,4,8,5,7,4,8,5,1-4[8:1],1,3v5[8:1],3,,,,,
7b-1[16:1],,,2-7[16:1],,,6b-2[16:1],,,3-7[16:1],,,5,,5,,
1,6,8,7,2,1,3,6,{24}4,5,3,{16}7,2,18,,18,,
2,,2h[8:2],,6,,5,,3-1[12:1],4,3-5[12:1],4,,,,,
3,,3h[8:2],,6,,5,,4-2[12:1],5,4-6[12:1],5,,,,,
2-4[16:1],,,6-4[16:1],,,1-5[16:1],,,7-4[16:1],,,2h[8:2],,,,
6,2,8,8,3,7,{24}2,1,2,{16}8,4,6,6,1,5,3,3,
6b<4[8:4],,,,5,,,,,,,,5,,,,
4>6[8:4],,,,5,,,,,,,,5,,,,
6h[8:1],,5,3h[8:1],,5,7h[8:1],,4,2h[8:1],,6,8,,1,,
1/2h[8:1],,{24}8,7,6,{16}1h[8:1],,{24}4,5,6,{16}2h[8:1],,
{32}8,7,6,5,{16}1h[8:1],,{32}4,5,6,7,
{16}8b>6[8:7]/2b,,,,,,,,,,,,
