&title=RATATA
&artist=Skrillex; Missy Elliott; Mr. Oizo
&first=0
&des=塔塔《*>w<* 》
&lv_5=13+
&inote_5=(124)
{16},,,,
,,,,
,,,,
,,5<8[4:1],,
{16},,,,
,,,,
,,,,
,,5<8[4:1],,
{16},,,,
,,,,
,,,,
,,5<3[2:1],,
{16},,,,
,,,,
,,,,
,,,,
{16}2h[8:1],,3h[8:1],,
4h[8:1],,5h[8:1],,
4,,45,,
24,,,,
{16}4,,4/5v6[8:1],,
2v3[12:1]/4,,,,
,,,,
42,,,,
{16}7h[8:1],,6h[8:1],,
5h[8:1],,4h[8:1],,
5,,54,,
75,,,,
{16}5,,5/4v3[8:1],,
7v6[8:1]/5,,,,
,,,,
4/5,,,,
{16}3-7[6:1]/8b,3,,6,
,4,,5,
5,,6,4,
7,,1,,
{16}2-6[6:1]/5,2,,7,
,1,,8,
8,,7,1b,
,1b/8,,,
{16}6-2[6:1]/1,6,,3,
,5,,4,
4,,3,5,
2,,8,,
{16}8-6[12:1],,8-4[8:1],,
8,,8,,
5-7[12:1]*-2[8:1],5,,,
,,,,
{16}6<2[6:1]/1,6,,3,
,5,,4,
4,,3,5,
2,,8,,
{16}7b<3[6:1]/4b,,,,
,8,,1,
1,,2,8,
3,,5,,
{16}3>7[6:1]/8,3,,6,
,4,,5,
5,,6,4,
7,,1,,
{16}1,4,3,6,
4,,4/8,,
8,5,6,3,
5,,1/5,,
{16}3h[16:3]/7,,4,4h[16:5],
,,5,,
5h[16:6],,4,4,
,,6,,
{16}7h[16:3],,5,5h[16:5],
,,4,,
4h[16:6],,5,5,
,,3,,
{16}1h[16:3],,2,2h[16:5],
,,3,,
3h[16:6],,4,4,
,,6,,
{16}8h[16:3],,7,7h[16:3],
,,6,,
75,,4,5,
,24,24,,
{16},1-5[8:1],,68,
86,,,7-3[8:1],
,46,46,,
,5,,,
{16}2>5[8:1],,1,1,
,7,7,,
6<1[8:1],,5,5,
,3,3,,
{16}24,,8,,
2-4[12:1]/4,,8-6[12:1],,
2b/1-5[8:1],,8b,,
1b,,,,
{16}4h[8:4]/7h[8:3],,,,
,,,,
5,,45,,
5/7h[4:1],,,,
{16}1b,8,2,1,
3-8[8:1],4,2,,
3/7,,4,,
7-4[8:1]/3,,8,,
{16}7/8,,3,,
7/8-3[8:1],,6,6,
8,5,5,,
1/7,,2,2,
{16}8,1,7,8,
6-1[8:1],5,7,,
6/2,,5,,
2-5[8:1]/6,,1,,
{16}2/1,,6,,
2/1-6[8:1],,3,3,
1,4,4,,
8/2,,6,6,
{16}4b,5,3,4,
2>5[8:1],1,3,,
2/6,,1,,
6<1[8:1]/2,,5,,
{16}6/5,,2,,
6/5>2[8:1],,7,7,
5-1[8:1],8,8,,
5,,,,
{16}5,4,6,5,
7<4[8:1],8,6,,
7/3,,8,,
3>8[8:1]/7,,4,,
{16}3/4,,7,,
3/4<7[8:1],,2,2,
4>2[8:1]*-8[8:1],1,1,,
4,,,,
{16}4/7,,6,5h[16:5],
,,4,,
4h[16:2],,5,4,
,,3,,
{16}2/5,,3,4h[16:5],
,,5,,
5h[16:2],,4,5,
,,6,,
{16}8/5,,7,6h[16:5],
,,5,,
5h[16:2],,6,5,
,,3,,
{16}24,,35,3,
,46,6,,
25,25,,47,
{32}47,6,5,4,3,2,1,8,
{16}7>2[8:1],,5,6,
7-5[12:1],,4,4,
,,3,,
24,,8,7,
{16}6>3[8:1],,8,7,
6-8[12:1],,1,1,
,,2,,
1/3,,,,
{16}2<7[8:1]/8,2,,4,
4,,5,,
2-7[12:1]/6-1[12:1],,35,,
26,,,,
{16}3<6[8:1]/5,3,,1,
1,,8,,
4w8[8:1],,26,,
4,,,,
{16}2b/6b,,,,
,,,,
4w8[8:1],,,,
,,,,
{16},,,,
,,,,
4w8[8:3],,,,
,,,,
{16},,,,
,,,,
4w8[8:1],,,,
,,,,
{16},,,,
,,,,
4w8[8:1],,,,
,,,,
{16}2h[8:1],,4,4,
3h[8:1],,1,,
7h[8:1]/8,,5,5,
6h[8:1],,8b,,
{16}2h[8:1]/1,,4,4,
3h[8:1],,1,,
4w8[8:1],,26,,
4,,,,
{16}2,2,6,6,
3,3,7,7,
4,4,8,8,
5,5,1,8,
{16}7-2[12:1]/3-6[12:1],,,,
,,,,
8,8,8,,
8,,8,,
{16}8/2-6[8:2],8,8,,
8,,8,,
8w4[12:1],,8,,
8b,,,,
{16}3/4,,8,,
3/4-8[8:1],,1,1,
4<7[12:1]*>2[12:1],2,2,,
4b,,,,
{16}1,8,3,4,
1-5[8:1],8,7,,
1/5,,8,,
6-8[12:1]/1,,5,,
{16}6/5,,1,,
6/5-1[8:1],,8,8,
5>7[6:1],6,6,,
,,,,
{16}4b,5,2,1,
4-8[8:1],5,6,,
{24}4/8,7,6,5,,,
{16}7/4,,8,,
{24}4/8,7,6,58,,,
{16}4/8,,8,8,
8>3[12:1]*<6[12:1],8,8,,
8b,,,,
{16}5,4,7,8,
5-1[8:1],4,3,,
{24}5/1,2,3,4,,,
{16}2/5,,1,,
{24}5/1,2,3,41,,,
{16}5/1,,1,1,
1,1,1w5[32:3],,
3bz7[4:5]/7bs3[4:5],,,,
{16},,,,
,,,,
,,,,
,,,,
{16},,,,
,,,,
,,4,,
4b,,,,
{16}5,,,,
1-5[8:1],,,,
,,8-6[12:1],,
2-4[12:1],,,,
{16},,,,
2v3[8:1]/8v7[8:1],,,,
,,,,
5h[8:1],,,,
{16}5h[1:0]/4,,,6h[1:0],
4,,7h[1:0],,
8h[1:0],8h[1:0],4,,
1h[1:0]/4,,2h[1:0],,
{16}5h[1:0]/4,,,6h[1:0],
4,,7h[1:0],,
8h[1:0],8h[1:0],4,,
4b,,,,
{16}5h[1:0]/4,,,6h[1:0],
4,,7h[1:0],,
8h[1:0],8h[1:0],4,,
1h[1:0]/4,,2h[1:0],,
{16}4/5h[1:0],,,4/7h[1:0],
4/7h[1:0],,2/6h[1:0],,
1/5h[1:0],2/6h[1:0],3/7h[1:0],4/8h[1:0],
5v8[8:1]/1v8[8:1],,,,
E
