&title=Emancipator
&artist=Junk
&first=0.36
&des=ホシノちゃん
&des_5=ホシノちゃん
&lv_5=14
&inote_5=(165)
{8}7bV53-6[2:1]/3b,,3,1-5[8:1],,1,,,8V64[4:1],,3,2-5-3[4:1],,2,C,,
{8}7-4<5-8[2:1],,1,2-6[8:1],,2,,,8V64[4:1],,4,2-6[8:1],,2,
{16}5,5,4,6,
{8}2V46-3[2:1],,6,8-4[8:1],,8,,,1V35[4:1],,6,7-4-6[4:1],,7,C,,
{8}2-5>4-1[2:1],,8,7-3[8:1],,7,,,1V35[4:1],,5,7-3[8:1],,7,
{16}4,4,5,5,
{16}2b,,7,5,6h[8:1],,3,4,3h[8:1],,8,1,6,6,2,2,8h[8:1],,2,4,3h[8:1],,6,5,6h[8:1],,1,8,3,3,7,7,
{16}1h[8:1],,5,2,4h[8:1],,3,5,2h[8:1],,4,3,6,6,4,4,8h[8:1],,4,7,5h[8:1],,6,4,7h[8:1],,5,6,3,3,5,5,
{16}1b,,1,,1/4,,4,,4/2,,2,,2/6,,6,5,
{16}8,,8,,8/5,,5,,5/7,,7,,7/3,,4,2,
{16}5,3,5,3,6,4,6,4,7,5,7,5,8-4[8:1],6,8,6,
{32}8b,B8,C,B4,,,2x,3x,2xh[16:3],,,,,,5x,,
{16}1x<6[8:1]*>4[8:1],1x,1x,1x,1x,,,,
{16}1b,4,3,7,5,6,2,4,3>8[8:1],8,5,6,3,,7,7,
{16}2,4,3,8,5,6,3,4,2>5[8:1],8,1,7,2,,6,6,
{16}3,4,2,5,1,7,4,8,3>8[8:1],6,2,5,3,,6,6,
{16}1,4,2,7,5,6,1,8,2,1,3,7,4h[8:1],,6,2,
{16}8b,5,6,2,4,3,7,5,6<1[8:1],1,4,3,6,,2,2,
{16}7,5,6,1,4,3,6,5,7<4[8:1],1,8,2,7,,3,3,
{16}5h[4:1],,,,1,,1,,1,,1,,1,7,2z6[4:1],6,4bh[4:1],,,,,,,,8xw4[8:1],8x,8x,8x,8x,,,,
{16}8b,5,6,2,4,3,6,4,8p4[8:1],3,7,1,8,,2,2,
{16}5,4,6,1,4,3,6,5,7-3[8:1],3,8,2,7,,1,4,
{16}1b,4,3,7,5,6,3,5,1q5[8:1],6,2,8,1,,7,7,
{16}4,5,3,8,5,6,3,4,2,6,1,7,1,8,1,8,
{16}2b/7h[8:1],,5,6,5h[8:1],,C,,4,3,4h[8:1],,1,8,1,8,
{16}7b/2h[8:1],,4,3,4h[8:1],,C,,5,6,5h[8:1],,8,1,8,1,
{16}7b,7,4,6,3,5,3,5,2b,4,2,4,1,3,1,3,
{24}D1,D8,D7,D6,D5,D4,D3,D2,D1,D8,D7,D6,5xh[8:1]/4x,3,2,1,8,7,
{32}4/6,3,2,1,8,7,6,5,
{8}4/Cf,,,,3h[1:1],,,,,,7,,6h[2:1],,5,,4,5,3,7h[4:1],,1h[8:1],8h[8:1],2h[8:9],E7,,,,E6,,,,
{8}7h[1:1],,,,3h[1:1],,,,,,6,,5h[4:1],,4h[4:1],,7h[4:3],,2,3h[8:11],,,,,E1,,,,E2,,,,
{8}7/E1/D1,,,,6h[2:1]/E2/D2,,,,E3/D3,,5,,6/E4/D4,,7,,8/E5/D5,1,2,3h[8:1],E6/D6,4,3,2h[8:7],E7/D7,,,,E8/D8,,,,
{8}3/E1/D1,,,,7h[2:1]/E2/D2,,,,E3/D3,,5,,6/E4/D4,,7,,8h[4:7]/E5/D5,,,,E6/D6,,,,1h[4:3],,,,,,,,
{32}4h[4:1]/6,,,,6,,,,7,E8,B8,B1,,,5h[16:3],,,,,,6h[8:1],,,,2,E3,B3,B4,,,,,
{16}5h[4:1]/7-1[8:1],,7,,7,,,2,2-5[8:1],,4,,2,,,,
{32}4h[4:1]/6,,,,6,,,,7,E8,B8,B1,,,5h[16:3],,,,,,6h[8:1],,,,2,E3,B3,B4,,,,,
{16}5h[4:1]/7-1[8:1],,7,,7,,,2,2,,4,,2,6,2,6,
{32}5h[4:1]/3,,,,3,,,,2,E2,B1,B8,,,4h[16:3],,,,,,3h[8:1],,,,7,E7,B6,B5,,,,,
{16}4h[4:1]/2-8[8:1],,2,,2,,,7,7-4[8:1],,5,,7,,,,
{32}5h[4:1]/3,,,,3,,,,2,E2,B1,B8,,,4h[16:3],,,,,,3h[8:1],,,,7,E7,B6,B5,,,,,
{16}4h[4:1]/2-8[8:1],,2,,2,,,7,7w3[8:1],,5,,7,,,,
{4}7/E1,7/E2,7/E3,7/E4,7/E5,7/E6,7/E7,7/E8,7h[8:1]/D1,7h[8:1]/D2,7h[8:1]/D3,7h[8:1]/D4,7h[8:1]/D5,7h[8:1]/D6,7h[8:1]/D7,7h[8:1]/D8,
{8}1/B8,1,1/E7,1,1/B3,1,1/E5,1,2/A5,2,2/A6,2,2/E7,2,1h[8:1]/E8,,
{32}7b/8b,1/6,2/5,3z7[2:1]/4s8[2:1],,,,,,,,,,,,,,,,,,,,,,,,,,,,,
{64}A7/A5,B7`B5,Cf,B1`B3,A1`A3,,,,,,,,,,,,,,,,,,,,A2/A8,B2`B8,Cf,B4`B6,A4`A6,,,,,,,,,,,,,,,,,,,,
{8}1b>4b[8:1]/5b,1b/5b,
{16}1b<6b[8:1]/5b,,,,1b-3b[8:1]/3,,,,1b-5b[8:1]/7,,,8h[16:3],1b<6b[8:1],,,,1b-5b[8:1]/4,,4,,3/1b,,3,,2b-6b[8:1],,6,7,8<5b[8:1]/2b,,,,
{16}8b>3b[8:1]/4b,,,,8b-6b[8:1]/6,,,,8b-4b[8:1]/2,,,1h[16:3],8b>3b[8:1],,,,8b-4b[8:1]/5,,5,,6/8b,,6,,7b-3b[8:1],,3,2,1>4b[8:1]/7b,,,,
{16}1b-6b[8:1]/5b,,,,1b>4b[8:1]/6,,,,1b-5b[8:1]/7,,,8h[16:3],1b<7b[8:1],,,,1b-6b[8:1]/4,,4,,1b-5b[8:1]/3,,3,,2/1b,,3,3,8b<5b[8:1],,,,
{16}8b-3b[8:1]/4b,,,,8b<5b[8:1]/3,,,,8b-4b[8:1]/2,,,1h[16:3],8b,,,,3bx/5bx,,3bx/5bx,,
{8}7bx/8bx,5bx/6bx,3bx/4bx,1bx/2bx,
{16}2x,7x,2x,7x,
{16}2bq6[8:1],,1,,8b-4[8:1]/2,,1,,8b/2b<7[8:1],,3,3,2b/5b-8[8:1],,6,,5b/1b<6[8:1],,2,,3b-8[8:1]/1b,,4,,3b<6[8:1]/7b>2[8:1],,,,3b/7b,,,,
{16}7bp3[8:1],,8,,1b-5[8:1]/7,,8,,1b/7b>2[8:1],,6,6,7b/4b-1[8:1],,3,,4b/8b>3[8:1],,7,,6b-1[8:1]/8b,,5,,6b>3[8:1]/2b<7[8:1],,,,6b/2b,,,,
{8}6b/4,6/5,6b/3,6/5,6b/2,6/5,6bh[8:1]/1,,3b/5,3/4,3b/6,3/4,3b/7,3/4,3bh[8:1]/8,,
{16}4b,6,4,6,3b,5,3,5,2b,4,2,4,1b-5[8:1],3,1,3,
{32}1b,B1,C,B5,,,7x,6x,7h[16:3],,,,,,4x,,8xw4[8:1],,8x,,8x,,8x,,8x/C,,,,,,,,
{16}1b,4,3,7,5,6,2,4,3,5,2,8,5,6,4,7,E2/B2,4,3,E8/B7,5,6,E1/D1,4,2v5[8:1],5,,5,2,7,7h[16:1],,
{16}8,5,6,2,4,3,7,5,6,4,7,1,4,3,5,2,E8/B7,5,6,E2/B2,4,3,E1/D1,5,7v4[8:1],4,,4,7,2,2h[16:1],,
{16}1,4,3,7,5,6,2,4,3,5,2,8,5,6,4,7,E2/B1,4,3,E8/B8,5,6,D1,4,2v5[8:1],5,,5,2,7,7h[16:1],,
{16}8,5,6,2,4,3,7,5,6,4,7,1,4,3,5,2,E8/B8,5,6,E2/B1,4,3,5,4h[16:1],
{24}7,6,5,
{16}2,2,1,3,8,4,
{8}7<4[8:1],3,2,1,8pp4[8:3],7,6,5,5>7[8:6],,3>7[2:1],,1<7[4:1]*-5[8:1],,C,,
{8}4pp8[8:3],3,2,1-3[8:1],,1<5[2:1],,1/2x,,,
{16}8,1,2,3,4V68[4:1],,3,,B1/B2/4,,,,
{8}2>5[8:1],6,7,8,1qq5[8:3],2,3,4,4<2[8:6],,6<2[2:1],,8>2[4:1]*-4[8:1],,C,,
{16}5,3,5,3,6,4,6,4,7,5,7,5,8-4[8:1],6-2[16:1],8,6,
{96}8x,B6,B8,C,B2,B4,,,,,,,,,,,,,,,,,,,
{16},,,,1xw5[8:1],1x,1x,1x,1x,,,,
{16}2-6[8:1]/8,,7,,2V48[4:1]/1,,8,,2/7,,6x-3[8:1],6x,7h[8:1],,6,,8-4[8:1],,2-6[8:1],,8,,2,,1-5-3[4:1],,3,7h[16:3],1,,,,
{16}7-3[8:1],,2,,7V51[4:1]/8,,1,,7/2,,3x-6[8:1],3x,2h[8:1],,3,,1-5[8:1],,7-3[8:1],,1,,7,,8-4-6[4:1],,6,2h[16:3],8,,,,
{16}2bx,4,3,8bx,5,6,1bx,4,3,7,5,6,
{24}2,3,4,5/7h[16:1],,,
{16}8bx,5,6,2bx,4,3,7bx,5,6,1,4,3,
{24}7,6,5,4/2h[16:1],,,
{16}3bx,7,3,7,2bx,8,2,8,1bx,1,1,1,1-6[8:1]*-4[8:1],1,1,1,1,,
{32},,2x,8x,
{16}2xh[4:1],,,7,4,8,4,8,1x-5[8:1]/3x-7[8:1],,2x,,
{96}1b/3b,B1,B3,Cf,B5,B7,,,,,,,,,,,,,,,,,,,
