&title=レミングミング (kemu Remix)
&artist=かいりきベア · kemu feat.flower
&first=0.645
&des=Kurage
&lv_5=14
&inote_5=(250){4}1h[8:1]/8h[8:1],1h[8:1]/8h[8:1],1h[8:1]/8h[8:1],1h[8:1]/8h[8:1],
{8}2-4[8:1],,6-8[8:1],,3-5[8:1],,7,7-3[8:1],
,4-1[8:1],,5,5<2[4:1],,1,,
3-5[8:1],,8-6[8:1],,4-2[8:1],,7,7-3[8:1],
,1>4[8:1],,5,5<8[8:1],,1,,
3-5[8:1],,7-1[8:1],,4-2[8:1],,8,8-4[8:1],
,3-1[8:1],,6,6V48[4:1],,1,,
2-4[8:1],,6-8[8:1],,3-5[8:1],,7,7-3[8:1],
,4qq5[4:2],,5,5,,7,,
7-5[8:1],,5,,7-5[8:1],,5,,7,7,5,,54,,63,,
2-4[8:1],,4,,2-4[8:1],,4,,2,2,4,,45,,63,,
7-5[8:1],,5,,7-5[8:1],,5,,7,7,5,,54,,63,,
2,2,4,3h[8:3],,,7,7,
5,6h[8:3],,,3,,3-1[8:1]*-8[8:1],,
3b,,7,,7-5[8:1],,4,,
1-3[8:1],,4,,8-4[8:1],,4,,
3-1[8:1],,5,,7-5[8:1],,1,,
2,2,4,,45,,36,,
7-1[8:1],,5,,2-4[8:1],,8,,
5-7[8:1],,3,,1,1,8,8,
3>7[8:2],,7>3[8:2],,5,,5<1[8:2],,
1<5[8:2],,3,,3,,24,,
7-5[8:1],,3-1[8:1],,6-4[8:1],,2,2-6[8:1],
,5-8[8:1],,4,4>7[4:1],,8,,
6-4[8:1],,1-3[8:1],,5-7[8:1],,2,2-6[8:1],
,8<5[8:1],,4,4>1[8:1],,8,,
7-5[8:1],,5,,8-4[8:1],,4,,
7,7,5,,45,,36,,
2-4[8:1],,4,,1-5[8:1],,5,,
2,2,4,,54,,63,,
7-5[8:1],,5,,8-4[8:1],,4,,
7,7,5,,45,,36,,
2,2,4,3,6,,7,7,
5,6,3,,6,,6-8[8:1]*-1[8:1],,
6b,,2,,2-4[8:1],,5,,
8-6[8:1],,5,,1-5[8:1],,5,,
6-8[8:1],,4,,2-4[8:1],,8,,
7,7,5,,54,,63,,
2-8[8:1],,4,,7-5[8:1],,1,,
4-2[8:1],,6,,8,8,1,1,
6<2[8:2],,2<6[8:2],,4,,4>8[8:2],,
8b>4[8:2],,7,,6,6,75,,
6b-4[8:1]/3b-1[8:1],,36,,2,2-6[8:1],,2b/8h[8:5],,,,,4,,4,,
3b-5[8:1]/6b-8[8:1],,63,,7,7-3[8:1],,4b>6[8:4],,5,5,,4,,4,,
3/5<8[8:2],,8>3[8:2],,3<6[8:2],,6<1[8:2],,1>4[8:2],,4<7[8:2],,7,,1w5[8:1],,
1b,,,,,,,,,,,,,,,,
7b-4[8:1]/8bv5[8:1],,8b/7b,,3V52[4:1],,7,7-3[8:1],
,1,1<6[8:1],,5-8[8:1]*-2[8:1],,5,,
7-4[8:1]/1-5[8:1],,7b/1b,,3<6[8:1],,37,7h[8:2],
,8,8q4[48:7],6,6-2[8:1],,,,
3/1<5[8:2],,5>1[8:2],,1<5[8:2],,5>1[8:2],,
1-5[48:9],,5,,3-7[8:1],,6-4[8:1],,
1>4[8:1]*<6[8:1],,1w5[8:1],,1,,7,7b/3b,
,,5-1[8:1]/4-8[8:1],,5b/4b,,72,,
1-5[8:1]/4-7[8:1],,1b/4b,,8>3[8:1],,48,4-1[8:1],
,8,8v5[8:1]*v3[8:1],,,,6-1[8:1]/2-5[8:1],,
6b/2b,,8p3[48:8],8,3b,,1,{24}1/5b,2,3,4,5,6,7,8,1,2,3,4,5,6,7,8,1,2,3,4,5,6,7,8,1,2,3,
{8}6-4[8:1]/4-8[8:1],,4b/6b,,2V48[4:1],,6,6b-3[8:1],
,1,1-7[8:1]*-6[8:1],,1-3[8:1]*-4[8:1],,1,,
6b-4[8:1],,6/2-6[8:1],,5-8[8:1]/2,,51,1>6[32:7],,7,7-3[8:1],,1w5[8:1],,1,,
{4}7b/3b,,,,,,,,,,,,
{8},26,,,{6}4,4,4,
{8}5b/3h[4:4],,,,,,5,,7h[4:4],,,,5,,,,
5h[8:6],,,6,,,4,,4q5[8:4],,,,,,,,
6h[4:4]/4,,,,,,4,,2h[4:4],,,,4h[256:1],,,,
4h[4:2],,,,3h[4:2],,,,5,,6,,37,,,,
2<7[4:2]/6,,,,6,,6,,6>3[4:2],,,,2,,2,,
1-4[4:2],,,,7,,7,,8-5[4:2],,,,,,,,
3V14[4:2]/4,,,,8,,7,,6V85[4:2]/5,,,,1,,2,,
3/4h[4:2],,3,,2,,8,,5h[4:2]/6,,6,,7-3[8:1],,,,
2b/4,,2,,18,,7,7,5,6,3,4,2,,6,,
7b/5,,8,8,1,,2,4,3,3,6,6,1,8,18,,
2b/7b,,1,,34,,8,8,5,6,4,,37,,15,,
34,,24,,14,,18,,17,,76,,75,,45,,
2h[4:6]`4bz8[4:5],,,,,,,,,,,,,,,,
2bv5[8:1]/8bq4[8:1],,8b/2b,,6V47[4:1],,1,1-5[8:1],
,8,8>3[8:1],,4-1[8:1]*-7[8:1],,4,,
8q5[8:1]/2pp4[8:1],,2b/8b,,6>3[8:1],,26,2h[4:1],
,1,1V75[48:9],3,3-7[8:1],,,,
6/8V24[8:2],,4V68[8:2],,8V24[8:2],,4V68[8:2],,
8-4[48:9],,4,,6-2[8:1],,3<5[8:1],,
8<5[8:1]*>3[8:1],,8w4[8:1],,8,,2,2b/6b,
,,4-8[8:1]/5-1[8:1],,4b/5b,,27,,
8-4[8:1]/5-2[8:1],,8b/5b,,1<6[8:1],,51,5>2[8:1],
,1,1-4[8:1]*-6[8:1],,,,3-8[8:1]/7-4[8:1],,
3b/7b,,1q6[48:8],1,6b,,8,{24}8/4b,7,6,5,4,3,2,1,8,7,6,5,4,3,2,1,8,7,6,5,4,3,2,1,8,7,6,
{8}2-5[8:1]/5-1[8:1],,5b/2b,,7V51[4:1],,3,3b-6[8:1],
,8,8>3[8:1]*-3[8:1],,8<5[8:1]*-5[8:1],,8,,
3b-5[8:1],,3/7-3[8:1],,4-1[8:1]/7,,48,8<3[32:7],,2,2-6[8:1],,8w4[8:1]*-4[8:1],,8,,
1b/7b,,,,,,,,,,,,2h[4:1]`6h[4:1],,,,
7b-5[8:1],,1-3[8:1],,8-4[8:1],,2,2-5[8:1],
,6-1[8:1],,4,4>7[32:7],,8,,
6-4[8:1],,2-6[8:1],,8-5[8:1],,3,3-8[8:1],
,6>3[8:1],,1,1-4[8:1]*-6[8:1],,1,,
7-1[8:1],,3-5[8:1],,6-2[8:1],,4,4-1[8:1],
,8-5[8:1],,3,3>6[32:7],,6,,
5-8[8:1],,4-1[8:1],,7-3[8:1],,2,2,
4,,{16}5,4,5,,{8}3-5[8:1]/6-4[8:1],,3b/6b,,
{16}21,3,4,6,7,8,21,3,4,6,7,8,12,3,4,5,
6,7,18,2,3,5,6,7,18,2,3,5,6,7,18,,
{8}2-5[8:1],6-1[8:1],2,6,4-1[8:1],7-4[8:1],4,7,
3-8[8:1],6-3[8:1],3,6,{16}1,8,7,6,51,,,,
{16}46,3,2,1,7,6,5,4,2,1,2,1,3,,4,,53,6,7,8,2,3,4,5,7,8,7,8,6,,4,,
{24}
3,4,5,6,7,8,1,2,3,4,5,6,7,8,1,2,3,4,5,6,7,8,1,2,
{24}3/7,6,5,4,3,2,1,8,7,6,5,4,3,2,1,8,7,6,5,4,3,2,1,8,
{4}7bz3[4:4]/5h[4:5],,,,,,2b/8b,,
