&title=チャンネル登録よろしくお願いします
&artist=GYARI
&first=0.03
&des=Kondou
&lv_6=14
&inote_6=(140){1},
{16}
3h[8:6],,,,,,,,,,,,4h[8:6],,,,
,,,,,,,,5h[8:6],,,,,,,,
,,,,6bw2[8:1],,,,6b,,,,8/4h[8:6],,,,
,,,,,,,,5h[8:6],,,,,,,,
,,,,6h[16:7],,,,,,,7,,8,8,7,
1p8[8:6],,,,,,,,,,,,C,,,,
7b,,{24}2,3,4,{16}5,,6x/5x,,7h[8:1],,8,,6,,{24}1,2,3,{16}
4,,5x/4x,,7h[8:2],,8h[8:1],,,,{24}2,3,4,{16}5,,6x/5x,,
7h[8:1],,8,,1b-4[8:1]/2b-7[8:1],,,,1b/2b,,,,
3,,{24}7,6,5,{16}4,,3x/4x,,2h[8:1],,1,,3,,{24}8,7,6,{16}
5,,4x/5x,,2h[8:2],,1h[8:1],,,,{24}7,6,5,{16}4,,3x/4x,,
2h[8:1],,1,,8b-5[8:1]/7b-2[8:1],,,,8b/7b-3[8:1],,,,7b/4bw8[8:1],,,,4b`Cf/B4/B8,,,,
6/2h[8:1],,8,81,,7,7h[8:1]/3,,1,18,,2,1b/3bqq7[8:5],,,,
,,8x,,7x,7x,,6x,,5x,,5x,{24}1x,8x,1x,{16}8x,2x,
6b,,,,2/3h[8:8],,,,,,,,1,,,,
,,,,2,,,34,,5,4,5,3b,,,,
6h[8:8]/7,,,,,,,,8,,,,,,,,
7,,,65,,4,5,4,6b,,1,8h[16:17],,,,,
,,,,7,,,,,,,,1,,,54,
,6,5,7,1b,,5,4h[16:17],B7f,,,,,,,,
2,,,,2x,1x,8x,7x,6x,5x,4x,3x,3x,3x,3x,3x,
{48}3bx,B3f,Cf,B7f,A7f,,,,,,,,{16}8x/1x,,2,1,,1,3,,34,,3,5,,5,1,
,18,,1,6,,6,5,7,3h[16:3],,,,
8x/1x,,7,8,,8,6,,65,,6,4,,4,8,,
81,,8,3,,3,4,2,6h[16:3],,,,
8x/1x,,2,4,,4,8,,71,,1,6,,6,4,,
13,,3,4,,6,5,7h[8:2],3h[16:3],,,,
8x/1x,,7,5,,5,1,,28,,8,3,,3,5,,
86,,3,4,,6,5,7,
3,4,2,8,7h[24:1]/1h[12:1],,71,,{48}E4/B3f/E3/3x,4x,5x,6x,7x,8x,1x,2x,3x,4x,5x,6x,7x,8x,1x,2x,3x,4x,5x,6x,7x,8x,1x,2x,3x,4x,5x,6x,7x,8x,1x,2x,3x,4x,5x,6x,{32}7x,8x,1x,2x,3x,4x,5x,6x,{24}7x,8x,1x,2x,3x,4x,{16}5x,,B6/E6/B5,,
B3/E4/B4,,B8/E1f/B1/7bqq1[8:2],,,,1,2,3,,3,8x-4[8:1],,8,1,,
3,,5/2pp8[8:2],,,,8,7,6,,6,1x-5[8:1],,1,8,,
6,,D8f/A7,,D2f/A2,,3,4V61[8:2],3,4,,2h[16:3],,,,,
3-6[8:1],,3,,5-8[8:1]*-2[8:1],,5,,5b,,,,1h[8:1]/6h[8:1],,,8h[8:1]/3h[8:1],
,,5bpp1[8:2]/1b,,,,4,3,2,,2,8x-5[8:1],,8,1,,
3,,4bqq8[8:2]/7b,,,,5,6,7,,7,1x-4[8:1],,1,8,,
6,,D8f/A8,,D2f/A1,,6,5V36[8:2],6,5,,8h[16:3],,,,,
1^6[8:1]b,,1,,4b-1[16:1]b,,3,4b,,,8h[8:3]b/2b,,,,4x,5x,6x
,,1b/7b,,,,3,4,2<5[8:2],,8,1h[16:13],,,,,
,,3h[8:3],,,,,,,,1,8V61[4:1],,,2,,
2h[8:1],,,,2,,8,1<1[16:6],7,1,,7h[16:3],,,
,,6,,6,,4b/3b,,1,8b/2b,,6,7bqq8[4:1]/5b,,,,
{24}4,3,2,{16}1h[16:1],,1h[16:1],,2b>2[8:8]/6b<6[8:8]b,,,,,,,,
,,,,,,,,,,,,,,,,
{12}5h[12:1],6h[12:1],7h[12:1],4h[12:1],5h[12:1],6h[12:1],3h[12:1],4h[12:1],5h[12:1],2h[12:15],,,,,,,
,,,,,,,,{24},,,2h,3h,4h,{8}5h[8:1],6h[8:1],
7h[8:1],8h[8:1],1h[8:6],,,,,,,6h[8:1],{16}4h[16:1],5h[16:1],3h[16:1],1h,,1h[8:1],
,2h[16:3],,,3h[8:1],,4h[8:2],,,,,,{24}8h,7h,6h,{8}5h[8:1],
4h[8:1],3h[8:1],2h[8:2],1x,3h[8:1],{16}2h,1h,2h,8h[8:1],,4h[16:1],,,{24}6h,5h,6h,5h[8:1]
,,,{16}1hb[8:2],,,,,,3h[16:1],4h[16:1],2h[8:2],,,,8h[16:1],
1h[16:1],7h[16:1],8h[16:1],6h[8:1],,5h[16:1],7h[16:1],3h,,1h[8:1]/2h[8:1],,,,3h,,
{24}7h,6h,5h,{16}4h[16:1],,2,,7h[8:1]/8h[8:1],,{24},,,1h,2h,3h,{16}4h/5h[8:1],,
,,7h[16:1],8h[16:1],7h[16:1],8h[16:1],6h,,3h[8:1]/4h[8:1],,,,1h,1h,8h[8:1],,6h[8:1],,
4h[8:1],,2h,2h,1x,3h[16:1],4h[16:1],3h[16:1],6h[16:1],5h[16:1],6h[16:1],5h[16:1],7h[16:3],,,8h[16:3],,
,3h[16:1],2h[16:1],4h[16:1],1h[16:1],4h[16:1],1h[16:1],5h[16:1],2h[16:1],5h[16:1],2h[16:1],7h[16:1],8h[16:1],7h[16:1],8h[16:1],6h,
,1hb[16:7]/2b,,,,3x,,4x,4x,8h[16:1],3x,7h[8:2],,,5x,5x,
,4x/6h[16:1],,{24}5h[8:2]/3x,2x,1x,8x,,,{16}8x,,6h[16:1],1x,1x/7h[8:2],,,
,1h[8:2],,7,6,5b,,3,3,,8,1,1,7,8,6,6,
{24}4,5,4,5,4,5,3,4,3,{16}4,2,6b,,,,8b/1b,,,,
34,,6hb[8:4]/5hb[8:4],,,,,,,,,,{24}4,5,4,{16}5,3,7
,,8h[8:3]/1h[8:3],,,,,,,,6,6,{24},,3,4,3,4,
3,4,3,{16}5,,2-7[8:1]/7,,,,6,6,,8b,,,6,5,6
,,4,,3,,81,,81,,7,2,7,,3,34,,
,7h[8:3]/1h[8:3],,,,,,,,2,2,,5,3,6,4
,,7h[8:3]/8h[8:3],,,,,,,,3,24,,,8,1,
7,,8h[8:1]/1h[8:1],,,,2b,3b,4b,5b,,7hb[16:7],,,8b,,2b
,,4b,,{32}7b/4b,6x/3x,5x/2x,4x/1x,,,2b/5b,3x/6x,4x/7x,5x/8x,,,{16}1b/2b,,,,13,,68
,,7b/2b,,,,72,63,5/4qq8[8:2],,54,54,,,7,,
7,,1h[8:1]/2h[8:1],,,,12,38,7qq1[8:2]/4,,74,74,,,2,,
3h[8:2],,D8/A8f/D1,,D5/A4f/D4,,62,37,84,15,,3h[16:3]/7h[16:3],,,,,
81,,23,,45,,67,,1b/2bV41[8:2],,,,7v1b[16:1],,,7b,
,,8h[8:1]/2h[8:1],,,,82,17,6qq3[8:2]/8,,68,68,,,2,,
2,,7h[8:1]/5h[8:1],,,,75,64,5/3qq7[8:2],,53,53,,,8,,
8,,A6/D6f/E6/A5,,A3/D4f/E4/A4,,1,2,1,2,8,8/1h[16:7],,,6,,7
,,8,,12,,4,5,4,5,3,3/4h[16:7],,,1,,
2,,3,,45,,7,8,7,8,6,6/2h[16:5],,5,6,7,
8,1,2,2,{12}4b,4,4,6b,6,6,8b,8,8,
2b,2,2,{16}1hb[8:4]/3hb[8:5],,,,,,,,,,4x,5x,6x/Cf/B8/B1/B2/B3/B4/B5/B6/B7,
,,,1x/2x,,{24}3,4,3,{16}4,,2h[8:1],,1h[8:1],,8,,
78,,{24}6,5,6,{16}5,,7h[8:1],,8h[8:1],,1,,
12,,{24}3,4,3,{16}
4,,2h[8:1],,1h[8:1],,8,,7b-2[8:1]/5b-8[8:1],,,,7b/5b,,,,4x/3x,,{24}2,1,2,{16}1,,3h[8:1],,4h[8:1],,5,,
65,,{24}7,8,7,{16}8,,6h[8:1],,5h[8:1],,4,,
43,,{24}2,1,2,{16}
1,,3h[8:1],,4h[8:1],,5,,6b-3[8:1]/8b-5[8:1],,,,6b/8bV24b[8:1],,,,8b/1bw5[8:1],,,,
1b`B1/Cf/B5,,,,73,3,1,1h[8:1]/2h[8:1],,,73,7,5,5h[8:1]/6h[8:1],,,
7b/8bh[16:15],,,,,,7,,6,6,,5,,4,,4,
{24}1,2,3,{16}5,5,{24}4,6,5,{16}6,2,{24}7,6,5,4,3,2,6,5,4,{16}2,2,1
,1,8,6b^4[8:16],,,,,,,,,,,,,
,,,,,,,,,,,,,,,,
,,,,,,,,,,Ch[16:4]f,,,,
{48}1,2,3,4,5,6,7,8,1,2,3,4,5,6,7,8,1,2,3,4,5,6,7,8,1,2,3,4,5,6,7,8,1,2,3,4,5,6,7,8,1,2,{32}3,4,5,6,7,8,1,2,3,4,5,6,{24}7,8,1,2,3,4,5,6,7,{13}8,1x,{83}2xh[84:50],,
,,,,,,{4},,C,,,,,,,,
,,,,,,,,,,,,,,,,
