&title=[觉]Terresphere
&artist=Plum - Melodic Artist
&first=-0.374
&des=micavro
&lv_7=14+?
&inote_1={16}1-5[8:1],1>3[128#10:1],1<7[106.66#12:1],,1,,1,,1-4[8:1],,,,1b,,,,
{16}8-4[8:1]*<6[106.66#12:1]*>2[80#16:1]*-5[53.333#24:1],8$,8$,,8,,8,,8,,,,8b,,,,
{16}1,1,1>3[8:1],,3<5[8:1],,5<7[8:1],,7b>1[8:1],,,,,,,,
8,8,8<6[8:1]/6?>4[106.666#12:1]/4?>2[80#16:1]/2?<8[64#20:1],,6,,4,,2b,,,,5,,4,,3,,
&inote_7=(160){1},
{4},,,,,
1-4[8:1]/8,1/8,1-4[8:1]/8,1/8b,
8-5[8:1]*-5[8:1]/1,8/1,8/8?-5[8:1]/1,8b/1,
1-5[8:1]/8,1/8,1-5[8:1]/8,1/8b,
8-4[8:1]*-4[8:1]/1,8/1,8/8?-4[8:1]/1,8b/1,
1-4[8:1]/8,1/8,1-5[8:1]/8,1/8b,
8-4[53.333#24:1]*-5[8:1]/1,8/1,8/1,8b/1,
1-5[8:1]/8,1/8,1V35[8:1]/8,1/8b,
8V64[53.333#24:1]*-4[8:1]/1,8/1,8/1,8b/1,
1-4[8:1]/8,1-5[8:1]/8,{8}1-3[12:1]/8,8,{4}1/8b,
1/8-5[8:1]*-4[80#16:1]*-6[53.333#36:1],1/8,{8}1/8,1,{4}1/8b,
1-5[8:1]/8,1-3[12:1]/8,{8}1-4[8:1]/8,8,{4}1/8b,
1/8-4[8:1]*-6[80#24:1]*-5[53.333#24:1],1/8,{8}1/8,1,{4}1/8b,
1-6[8:1]/8,1-4[8:1]/8,{8}1>5[8:1]/8,8,{4}1/8b,
1/8-3[8:1]*-5[80#16:1]*<4[53.333#24:1],1/8,{8}1/8,1,{4}1/8b,
1q5[8:1]/8,1v6[8:1]/8,{8}1>4[8:1]/8,8,{4}1/8b,
1/8p4[8:1]*v3[80#16:1]*<5[53.333#24:1],1/8,{8}1/8,1,1/8b,1,
{4}1v2[8:1]/8,1/8,1v3[8:1]/8,1/8,1v4[8:1]/8,1/8,1-5[8:1]/8,1/8,1v6[8:1]/8,1/8,1v7[8:1]/8,1/8,1v8[8:1]/8,1/8,1-5[8:1]/8,1/8b,
8v7[8:1]*v6[53.333#24:1]*v5[32#40:1]*-4[22.857#56:1]*v3[17.777#72:1]*v2[14.545#88:1]*v1[12.308#104:1]/1,8/1,8/1,8/1,8/1,8/1,8/1,8/1,8/1/8?-4[22.857#56:1],8/1,8/1,8/1,8/1,8/1,8/1,8b/1,
{8}1v8[8:1]/8,,1/8,,1v4[8:1]/8,8,1/8,,1v2[8:1]/8,,1/8,,1-5[8:1]/8,8,1/8,,1v3[8:1]/8,,1/8,,1v7[8:1]/8,8,1/8,,1v6[8:1]/8,,1/8,,1-5[8:1]/8,8,1/8b,,
8v1[8:1]*v5[53.333#24:1]*v7[32#40:1]*-4[22.857#56:1]*v6[17.777#72:1]*v2[14.545#88:1]*v3[12.308#104:1]/1,,8/1,,8/1,1,8/1,,8/1,,8/1,,8/1,1,8/1,,8/1/8?-4[22.857#56:1],,8/1,,8/1,1,8/1,,8/1,,8/1,,8/1,1,8b/1,1,
{8}1-4[8:1]/8,,1/8,,1-5[8:1]/8,8,1/8,,1-3[12:1]/8,,1/8,,1q5[8:1]/8,8,1/8,,1-6[8:1]/8,,1/8,,1-4[8:1]/8,8,1/8,,1p5[8:1]/8,,1/8,,1-3[12:1]/8,8,1/8b,,
8-4[53.3333#24:1]*-5[8:1]*-3[17.777#72:1]*-6[32#60:1]/1,,8/1,,8/1/8?-5[17.777#72:1],1,8/1,,8/1/8?p4[53.3333#24:1],,8/1,,8/1/8?-6[17.777#108:1],1,8/1,,8/1/8?q4[32#40:1],,8/1,,8/1,1,8/1,,8/1,,8/1,,8/1,1,8b/1,1,
{4}1-6[8:1]/8,1/8,{8}1-4[8:1]/8,8,{4}1/8,1-5[8:1]/8,1/8,{8}1-3[12:1]/8,8,{4}1/8,1-4[8:1]/8,1/8,{8}1-3[12:1]/8,8,{4}1/8,1q6[8:1]/8,1/8,{8}1q5[12:1]/8,8,{4}1/8b,
8-5[53.3333#24:1]*-3[8:1]*-6[22.85714#84:1]*-4[32#40:1]/1,8/1,{8}8/1/8?p3[14.5454#88:1],1,{4}8/1,8/1/8?-5[32#40:1],8/1,{8}8/1/8?p4[17.777#72:1],1,{4}8/1,8/1/8?-6[53.3333#36:1],8/1,{8}8/1,1,{4}8/1,8/1,{8}8/1,1,8/1,1,8b/1,1,
{8}8/1-5[8:1],,8/1-3[12:1],,8/1-4[8:1],,8/1-3[12:1],,8/1-6[8:1],,8/1-4[8:1],,8/1-5[8:1],,8/1-6[8:1],,8/1-3[12:1],,8/1-5[8:1],,8/1-6[8:1],,8/1-4[8:1],,8/1-6[8:1],,8/1-5[8:1],,8/1-3[12:1],,8b/1,,
1/8-4[8:1]*-6[80#24:1]*-5[53.333#24:1]*-3[32#40:1],,1/8,,1/8/8?-4[32#40:1],,1/8/8?-6[12:1],,1/8/8?-5[80#16:1],,1/8/8?-6[40#48:1],,1/8/8?-3[80#16:1],,1/8/8?-5[32#40:1],,1/8/8?-4[80#16:1],,1/8/8?-3[80#16:1],,1/8/8?-6[32#60:1],,1/8/8?-4[53.333#24:1],,1/8/8?-3[8:1],,1/8,,1/8,,1/8b,,
{8}8/2-4[12:1],,8/2-7[8:1],,8/2-6[8:1],8,8/2-5[8:1],,8/2-6[8:1],,8/2-5[8:1],,8/2-6[8:1],8,8/2-5[8:1],,8/2-7[8:1],,8/2-4[12:1],,8/2-5[8:1],8,8/2-6[8:1],,8/2-4[12:1],,8/2-7[8:1],,8/2-6[8:1],8,8b/2,,
{8}1/7-5[12:1]*-2[80#16:1]*-3[53.3333#24:1]*-4[40#32:1],,1/7,,1/7/7?-5[20#96:1],1,1/7/7?-2[26.666#48:1],,1/7/7?-3[8:1],,1/7/7?-4[8:1],,1/7/7?-3[8:1],1,1/7/7?-4[8:1],,1/7/7?-3[40#32:1],,1/7/7?-4[80#16:1],,1/7/7?-2[40#32:1],1,1/7/7?-5[80#24:1],,1/7,,1/7/7?-3[80#16:1],,1/7,1,1/7b,1,,
{8}1/8,1/8,1/8,7b/8b,7b/8b,7b/8b,7b/8b,
{8}7/8-3[8:1],,7/8-2[12:1],,7/8-4[8:1],,7/8-5[8:1],,7/8-6[12:1],,7/8-5[8:1],,7/8-4[8:1],,7/8-3[8:1],,7/8-2[12:1],,7/8-6[12:1],,7/8-3[8:1],,7/8-5[8:1],,7/8-4[8:1],,7/8-6[12:1],,7/8-3[8:1],,7/8-6[12:1],,7/8-2[8:1],,7/8-5[8:1],,7/8-2[12:1],,7/8-5[8:1],,7/8-2[12:1],,7/8-6[12:1],,7/8-4[8:1],,7/8-3[8:1],,7/8-4[8:1],,7/8-5[8:1],,7/8-4[8:1],,7/8-3[8:1],,7b/8-5[8:1],7,7b/8-4[8:1],7,7b/8-3[8:1],7,7b/8,7,
{8}2/1-6[8:1]*-7[80#24:1]*-5[53.333#24:1]*-4[40#32:1]*-3[32#60:1],,2/1,,2/1/1?-6[26.66#48:1],,2/1/1?-7[26.66#72:1],,2/1/1?-5[53.333#24:1],,2/1/1?-4[8:1],,2/1/1?-3[40#48:1],,2/1/1?-4[32#40:1],,2/1/1?-5[32#40:1],,2/1/1?-6[80#16:1],,2/1/1?-7[22.857#84:1],,2/1/1?-3[53.33#36:1],,2/1/1?-6[53.33#24:1],,2/1/1?-4[32#40:1],,2/1/1?-5[17.77#72:1],,2/1/1?-3[12:1],,2/1/1?-6[20#64:1],,2/1/1?-3[32#60:1],,2/1/1?-7[12:1],,2/1/1?-4[8:1],,2/1/1?-7[12:1],,2/1/1?-4[32#40:1],,2/1,,2/1,,2/1/1?-5[8:1],,2/1/1?-6[53.333#24:1],,2/1/1?-5[8:1],,2/1/1?-4[80#16:1],,2/1b/1?-5[80#16:1],2,2/1b/1?-6[80#16:1],2,2/1b,2,2/1b,2,
{4}2>2[2:7],,,,,,,,,,,,,,,,7<7[2:7]*<7[2:7],,,,,,,,,,,,,,,,
1-4[8:1]*-4[8:1]/8,1/8,1/1?-4[8:1]/8,1b/8,
8-4[8:1]*-4[8:1]/1,8/1,8/8?-4[8:1]/1,8b/1,
1-5[53.333#24:1]*-4[8:1]/8,1/8,1/8,1b/8,
8V64[53.333#24:1]*-4[8:1]/1,8/1,8/1,8b/1,
8/1-4[8:1]*-5[80#16:1]*-3[53.333#36:1],8/1,8/1,8/1b,
1/8-4[8:1]*-6[80#24:1]*-5[53.333#24:1],1/8,1/8,1/8b,
8/1-6[8:1]*-4[80#16:1]*>5[53.333#24:1],8/1,8/1,8/1b,
1/8p4[8:1]*v3[80#16:1]*<5[53.333#24:1],1/8,1/8,1h[8:1]/8b,
