&title=Cinderella Story (BlackY Remix)
&artist=BlackY feat. 柚之原りえ
&first=-0.56
&des_5=FlowErCaaaT
&lv_5=14
&des=FlowErCaaaT
&inote_5=(150)
{4},,,{8}4,5,{4}6h[4:5]/3qq5[2:1],,,,5qq1[8:5],,8-6[8:1],,
{4}2h[8:11]/5pp1[2:1],,,,8qq4[2:1],,3h[4:1],{16},,2,5,
{8}3h[4:1]/4<8[4:1],,,,4>8[4:1],,,,
{16}7,,,6/2,,,3/5,,4/5,,,,4,,6,,
{4}3h[4:1],7h[4:1],2h[4:1],8h[2:1],1h[4:1],,
{4}2h[4:1]/7h[4:1],,1pp4[4:4]/8qq5[4:4],,,,,,3h[4:1],6h[4:1],
{16}2b,,3,5,4,,6,5,7,,3,4,2,4,1,,1/5,,7,1,7-5[8:1]*-3[8:1],,7,,7,,,,6/4,,3/7,,2/8,,1,7,1,,2/6,,3/5,,3,4,3,,3,,
{8}2/5h[2:1],1,8,1,2-5[8:1],,2,,
{16}7h[4:1],,4,,4,,3,6,3h[8:1],,5,2h[16:3],,,4,,1/5,,,2/6,,,3/7,,4h[8:1]/8h[8:1],,,3h[8:1]/7h[8:1],,,2/6,,
{16}1/5,,3,4,3,,2/5,,1/6,,7,8,7,,1/6,,2,5,2,5,3,6,3,6,4,5,3,6,2,7,1,8,
{16}1h[8:3],,,6,,,6,,2h[8:3],,,7,,,7,,3h[16:3],,,8,,,2/7,,1>4[4:1]/6,,,,1/6,,7,,8h[8:3],,,5,,,5,,7h[8:3],,,4,,,4,,
{16}5s1[8:2]/6z2[8:2],,,,,,,,,,,,8/3,,7/4,,5/6h[8:3],,,3,,,1,,1h[8:2]/8,,,,6h[4:1],,,,4,,,2/8,,,1/6,,2/7<4[4:1],,,,
{16}2,,1,,8-3[8:1],,,,8,,7-4[8:1],,,,7,,1,,2,,3/4-8[8:1],,,,3>4[4:1]/4,,,,7/3,,,,,,7,8,
{16}1/6h[8:1],,1,6h[16:3],,,2,,2/7h[8:1],,2,7h[16:3],,,3h[8:1],,8,,,1/6,,,2/5,,3/4<7[4:1],,,,2/4,,1,,
{16}8>4[4:1],,,,4<8[4:1],,,,8>3[16:3],,,3<6[16:3],,,7,,8w4[4:1],,,,,,,,,,,,2,,6,,1h[4:1]/7h[4:1],,,,,,2,,3,,4,,5,,6,,
{16}7h[8:1]/3h[8:1],,,2h[8:1]/6h[8:1],,,1h[16:1]/5h[16:1],,8>3[8:1]/4,,,,5/8,,6,,7/4,,,2/5,,,7/8,,1/6,,,,
{16}1-5[8:1]/7,,8-4[8:1],,1-3[8:1],,8-6[8:1],,1,,8,,4,5,4,5,3,6,2,7,1h[4:1],,,,8-3[8:1]*-5[8:1],,,,8w4[8:1],,,,8,,,,
{16}2b/6b,,1/7,,2/8,,3,7,4,6,4,6,4,,3/5,,3/5,,2/6,,1/7,,1,8,1,8,2,,3/7-4[8:1],,6,,3>8[8:1]/7,,2,,3/5,,7h[2:1],,6,,5,,4,,3,,
{16}2/7,,3,,4/6,,7,,8/3,,2,,1/7,,6,,5/3,,2,,8/7,,1,,4/6,,7,,1/2,,8,,5/6,,3/8,,1/6,,3/4,,
{16}2,5,2,5,3,6,4,7,5b/6b,,4b/7b,,3b/8b,,1b/2b,,,,,,
{16}1/8,,2/7,,1-5[8:1]/8,,2,8,1,,6,,7<4[8:1]/8,,6,1,7,,3,,2h[8:1]/1h[8:1],,,8h[8:1]/3h[8:1],,,{24}7,6,5,4h[8:1],,,,,,
{16}3/5,,2/6,,7-4[8:1]/8,,6,5,7,,3,,2-6[8:1]/1,,3,4,2,,5,,5h[8:2]/1h[8:2],,,,,,{24}1/5,2/6,3/7,4h[4:1]/8h[4:1],,,,,,,,,
{16}2,1,3/8v5[8:1],,7,,8/3>8[8:1],,2,,3/4h[8:1],,,5h[8:1]/7h[8:1],,,6/8,,
{16}1h[8:1]/7h[8:1],,,2h[8:1]/6h[8:1],,,3/5,,4h[8:1]/6h[8:1],,,,
{16}8<5[8:1]*<5[8:1],,8,,8>3[8:1]*>3[8:1],,,,8<5[8:1]*-5[8:1],,,,8>3[8:1]*-3[8:1],,,,8,,,,5b/4,,5/4b,,5b/4,,5/4b,,,,,,
{16}7/8,,1/6,,7-4[8:1]/8,,6,1,7,,2,,6/1>4[8:1],,2,7,1,,6,,7h[8:1]/5h[8:1],,,8h[8:1]/4h[8:1],,,{24}3/7,6,5,4h[8:1],,,
{16},,2/5,,1/6,,7/2-5[8:1],,3,4,2,,6,,2/7-3[8:1],,6,1,7,,8,,8h[4:1]/4h[4:1],,,,,,{24}8/4,1/5,2/6,3h[4:1]/7h[4:1],,,,,,,,,
{16}6,5,4/7-3[8:1],,8,,7/4-8[8:1],,5,,4/6h[8:1],,,5h[8:1]/1h[8:1],,,
{16}2/4,,3h[8:1]/5h[8:1],,,2h[8:1]/8h[8:1],,,6/8,,1h[8:1]/5h[8:1],,,,
{16}2/7,,2/6,,2b,5,4,5,2b,5,4,5,2b,6,4,8,2b,4,8,6,1b-5[8:1],,,,1<6[8:1]*>4[8:1],,,,1w5[8:1],,,,1,,,,
{16}8/2-5[8:1],,2,1,2,,8,,7-4[8:1]/1,,7,8,7,,1,,3,8,2,7,1-5[8:1],8,2,7,1b,,,,7/4,,3/8,,
{16}1/2>5[8:1],,3,4,2,,6,,8/7<4[8:1],,6,5,7,,2,,1h[4:1]/8h[4:1],,,,,,{24}1/8,2/7,3/6,4h[4:1]/5h[4:1],,,{16},,,,3/7,,
{8}2/8h[8:3],3,4,5,{16}7h[1:0]`4b,,,6b`3h[1:0],,,2h[1:0]`5b,,
{16}1h[8:3]/4,,,5,,,7,,8h[8:3]/2,,,3,,,4,,5,7,4,6,3,5,2,4,1,6,8,7,1-5[8:1],7,2,8,1b<6[8:1]*>4[8:1],,,,1w5[8:1],,,,1b,,,,,,
{16}7,8,1h[4:1]/6h[8:1],,,,6h[8:1],,1,,2/6h[8:1],,,1,6h[8:1],,2,,3/5h[8:1],,,2,5h[8:1],,1,,8-4[8:1]/5-7[8:1],,,,5/8,,,,
{16}8/3h[8:1],,,8,3h[8:1],,7,,6/3h[8:1],,,5,3h[8:1],,4,,4h[8:3]/3h[8:1],,,,2h[8:1],,,,1-4[8:1]/4-7[8:1],,,,1/4,,,,
{16}8h[8:1]/5,,,4,7h[8:1],,3,,2/6h[8:1],,,,1/5h[8:1],,,,1h[8:1]/5,,,5,2h[8:1],,6,,7/3h[8:1],,,,8/4h[8:1],,8,,
{16}7/4,,6,5,6,,6/3,,2/5,,3,4,3,,2/6,,1q5[8:1]/5q1[8:1],,,,1<6[8:1]/5>2[8:1],,,,1/5,,,,
{16},,6,2,1-6[8:1]/5,,5,,1/5,,5,,2/5,,5,3,6,,7,,8/4,,4,7,3>8[8:1],,3,,3/5,,5,,6,,7,,
{16}8/3,,7,,6/1,,2,,3/8,,6,5,6,,4/7,,3/8h[8:7],,4,,5,,6,,7,,1,,2,,3,,
{16}4/7,,2,1,3,,4/8,,1/3,,2/8,,1/7,,6/8,,1/5,,,7/3,,,3/6,,4/8<5[8:1],,,,3/8,,2,,
{16}1,4,2,5,3,6,4,7,5,6,4,7,3,8,2,1,3b/8b,,4b/7b,,3b/6b,,2b/5b,,1,4,2,6,4,8,2,6,
{4}1>4[8:1]/7h[4:1],1<6[8:1],1w5[8:1],1,
{16}7/3,,2/6,,1/5,,2,4,3,5,2,4,1,,8/5,,6/1,,7/2,,3/8,,7,2,6,1,5,,2/4,,3,,4/7,,6,,5/1,,5/1h[4:3],,4,,3,,2,,8,,
{16}7,,6,,1/7,,2,,3/8,,7,,1/5,,3,,
{16}5/8,,6,5,6,5,6,4,6/3,,2,7,3,7,3,7,4,8,3,7,2,6,1,5,8,4,1,5,2,6,3,7,4b/8b,,2b/6b,,5b/1b,,7b/3b,,,,,,
{24}6/4,,,3/7,,,2/8-4[8:1],,,1,8,1,8,,,2,,,1q5[8:1]/6,,,8,1,8,1,,,8,,,
{16}7h[8:1]/4h[8:1],,,6h[8:1]/3h[8:1],,,{24}2/5,3/6,4/7,5h[8:1]/8h[8:1],,,,,,
{16}3/7,,2/8,,1-5[8:1]/7,,3,6,1,,8,,3/8<5[8:1],,7,2,8,,1,,4h[4:1]/8h[4:1],,,,,,{24}4/8,1/5,2/6,3h[4:1]/7h[4:1],,,
{16},,,,4,5,2/6h[8:3],,4,,1,,3,,6h[8:1]/5h[8:1],,,3h[8:1]/7h[8:1],,,2/5,,3h[8:1]/6h[8:1],,,4h[8:1]/8h[8:1],,,3/7,,
{16}1/5,,,,1V35[8:1]*-4[8:1]/6,,2/7,,1V75[8:1]*-6[8:1],,,,1>4[8:1]*v4[8:1],,,,1<6[8:1]*v6[8:1],,,,1,,,,
{16}3b/5,,4/6b,,2b/4,,5/7b,,6,,,6,2,,7/1,,
{16}8<5[8:1],2,7,1,8,2,3,4,8v5[8:1],3,7,2,8,1,2,3,7/4,,7/4,6/3,2/5,,{24}2/5,3/6,4/7,5/8,,,
{16},,7/4,,2/5,,1-5[16:1],,,7-4[16:1],,,2,1,8-3[16:1],,,6-1[16:1],,,2,3,4h[4:1],,,,
{24}3,2,1,8,7,6,{16}5/2,2,5,4,7,7,2,5,
{16}3/4,,6,2,7,,4/6,,2b,1,3,6b,5,7,3b,,1/5,,6,8,5,1,2/4,,4/7,,6,,3/5,,2/6,,
{16}1,7,3,6,2,8,4,6,3,8,1,6,4,7,2,5,8bw4[8:1],,,,8,,,,1bw5[8:1],,,,1,,,,
{16}8<6[8:1],,,1,8,,2,,3<5[8:1],,,7,3,,8,,1-5[8:1],,,2,1,,4,,3-7[8:1],,,5,3,,6,,
{16}1>4[8:1]/5,,2,6,1<6[8:1],,8,3,1-5[8:1],,2,4,1,,4,,
{16}4h[8:1]/7h[8:1],,,1h[8:1]/6h[8:1],,,3/8,,1h[8:1]/4h[8:1],,,2h[8:1]/7h[8:1],,,5/8,,
{16}1/6,,3,4,2,4,3,,4,2,5,3,6,4,7,5,4/8,,1,2,8,2,1,,1/6,,7,8,7,6,7,,
{16}3b,4,2,6b,5,7,2b,1,3b,8,1,5,2b,7,4,1,3,3,4,4,5,5,6,6,1,5,3,1,5,7,2,6,3h[4:15]/5h[4:15],,,,
{4},,,,,,,,,,,,,,
{16},,2,6,3h[4:1]b/7h[4:1]b,,,,,,,,2h[4:1]b/6h[4:1]b,,,,,,,,1/5,,,2/6,,,3/7,,4/8,,,,6,,3,,
{8}7h[4:1],,4h[4:1],,8h[4:1],,3,,1b/2b,5b/6b,8b/7b,3b/4b,,,
{16}4/6,,2/5,,1v6[8:1]/7,,{24}1,8,2,{16}1,,3,,4-8[8:1],,{24}4,5,3,4,,,
{16}5h[4:1],,1h[8:1],,,2h[8:1]/6h[8:1],,,{24}2/6,1/5,8/4,3h[8:1]/7h[8:1],,,,,,
{16}1/8,,3/7,,5b`6h[1:0],,,3b`8h[1:0],,,2b`5h[1:0],,
{16}6b`1h[1:0],,2,4b/3h[1:0],,7,8b/2h[1:0],,1/7,,2/6,3/7,4/8,,{24}3/7,2/6,1/5,4h[4:1]/8h[4:1],,,
{16},,,,1,5,3/7,,4,8,2-6[8:1],6,3/7,,2b/8-4[16:1],,,8b/1-6[16:1],,,1b/7,,
{16}8h[8:1],,,7h[8:1]/5h[8:1],,,6/4,,2h[8:1]/7h[8:1],,,,1/6,,2/5,,
{16}3,4,3,4,2,5,2,5,1,6,8,7,2,1,3,8,2w6[8:1],,,,2,,,,8/4-8[8:1],,,,6/4,,,,
{16}1/5,1,5,2,7,1,6,3,8,4,7,2,6,1,4,8,7/1,,{24}6/1,2/7,3/8,4/1,,,3/8,2/7,1/6,5/8,7,6,5,4,3,2/8,,,4/6,,,
{16}1/7,,2,8,4,6,2,5,8/4,,1,5,2,6,3,7,4/8h[8:1],,5,,{24}1/5,4/8,3/7,2/6,1/5,8/4,
{16}7-2[8:1]/3-6[8:1],,,,7/3,,,,
{16}8/4,8,3,3,1,1,8,8,6b-3[16:1],,,6/2b-7[16:1],,,2b/5,,8b-4[16:1],,,8/2b-6[16:1],,,2b/7,,
{16}4b-7[16:1],,,4/1b-5[16:1],,,1b/8,,
{16}6,,7/8,,1/2,,3/4,,1,7,4,8,2,5,3,7,1-4[8:1]*-6[8:1],,,,1,,,,5-1[8:1]*-1[8:1],,,,5,,,,{48}2b/8b,3/7,4/6,5h[16:63],
E
