&title=Reply
&artist=KZ/かぐや(cv.夏吉ゆうこ)
&first=0.415
&des=Ayuri
&lv_5=14
&des_5=Ayuri
&inote_5=
(170){8}3,5,4,6h[4:1],,3<2[8:7],,,,,,,,,,,6,
4,5,3h[4:1],,7pp8-5[8:7],,,,,,,{2}C,
{8}5,5,3,3h[4:1],,4,2,5-8[8:5]/1v4[8:5],
,,,,,,,,4,
5,3,4>1[4:1],,7,6,5p4[8:5],
{16},,,,,,,,A4,A3,A2,A1,{4}Cf,
7-4[8:1],7/3-8[8:1],{8}3,6,{4}5-1[8:1],
5/2-5[8:1],2/6-1[8:1],{8}6,3,{4}4-8[8:1],
4,{8}6h[4:1],{24}E3,B3,B4,{8}E5,7,5,6,
4>1[8:1],{24},,,,,,E7,B6,B5,{8}E5,2,4,3,
5<8[8:1],{16},,,,2,1,{8}3,4/8,{4}7-4[8:1]/3-8[8:1],
{8}3/7,{16},,,,7,8,{8}6,5/1,{4}2-5[8:1]/6-1[8:1],
{2}2/6<4[8:3],{8}A5,A6,{4}A7,
{2}5/7V51[8:3],{8}A4,A3,{4}A2,
{1}4>5[1:2],
B2/E3/B3,
5<4b[2:3],
B7/E7/B6,
{2}2<7[2:1],7pp2[2:1],
,2h[8:3]/6V47[4:1],
{4}1-6[8:1],{8}1,5,5,4,{4}4>1[4:1],
,5<8[4:1],,1w5[8:1],
,7-3[8:1]/3-7[8:1],3/7,2qq4[2:1]/6qq8[2:1],
2/6,{8},,,,3pp2[4:3],7pp6[8:5],
,,,,,,,,{4}B3,
B7,B1,B5,
{8}1,2,{4}3<6[4:1],{2}5h[4:1],
{8}8,7,{4}6>3[4:1],{2}4h[4:1],
{8}3/1,8,{4}7<3[4:1],{2}4h[4:1],
{8}8,1,{4}2>6[4:1],{2}5h[4:1],
{8}7,1,{4}8z4[4:1],{8},,3,3,
6,4,{4}5s1[4:1],{8},,2V48<4[4:3],2,
,,,,,,,6,
4,5,{4}3V15b[4:1],{2}4h[4:3],
7>5[2:1],{32}A7,A8,A1,A2,{8}A3,,,7,
5,{4}6V84[4:1],{2}5h[4:3],
2<4[2:1],{32}A2,A1,A8,A7,{8}A6,{16},,1,8,
{8}1,2/7,{4}3-8[8:1]/6-1[8:1],3/6,4/5,
{8}3,3,4,2,6,6,5,{16}7,1,
{8}7,2,4,3,{16}5,4,5,4,6,3,6,3,
6b,4,5,4,3,4,2,4,1,4,8,4,7,4,6,4,
{2}5s1<8z4[8:3],{4}4xw8b[8:1],Cf,
3-7[8:1]/6-4[8:1],3/6,4>1[8:1],4<7[8:1],
4V62-5[8:3],4,8<5[8:1],8/B6f,
1>4[8:1],1/B3f,{8}5,4/6,{4}7/3>6[4:1],
{2}6<3b[4:1],{8}4,5,6,7,
{4}6b-2[8:1]/3b-5[8:1],6/3,5<8[8:1],{8}5>2[8:1],3,
{4}5V37-4[8:3],5,1>4[8:1],1b/B3/E3,
8<5[8:1],8b/B6/E7,{8}2,2,{4}5>2[4:1],
2<7[4:1],7<4[4:1],{2}4<1b[4:1],
{4}4-8[8:1],4,4-2[8:1]/5-1[8:1],4b/5b,
{8}8/7,6,5/4,3,2/1,3/8,7/4,6,
{4}5-1[8:1],5,5-7[8:1]/4-8[8:1],5b/4b,
1/2>5[8:1],{8}2,7-4[8:1],4V62[4:1],7,,,{4}A2f,
{8}7<4[8:1],8,7,2-5[8:1],5V37[4:1],2,
,,{4}A7f,1>4b[8:1]/8<5b[8:1],A8/D1/A1,
7-3[8:1],7-5[8:1]/4-8[8:1],7/4,1<2[2:1],
{32}A1,A8,A7,A6,{8}A5,,,{2}Cfh[4:1],
{4}1-5<7[4:1],1/7-3[8:1],{8},,6/5,5/4,
{4}4/3-1<7-5[4:1],3/5,4w8[8:1],4b,
5-7>8[8:1]*-8b[8:1],5-3>2[8:1]*-2b[8:1],5,{8}8-4[8:1],1,
{4}8,{8}3/5,4-7[8:1],2-5[8:1],4,{4}2,
{8}8-6>5-1[4:1],1,{4}8,2-6[8:1],{8}2/8,5,
5,{16}7,8,{8}6,{16}2,1,{8}3>7[4:1],3,7<3[4:1],7,
,,{4}8h[4:1],{8}4,7/3,{4}2-5[8:1]/6-1[8:1],
2/6,8z4[4:1],{2}4w8[8:1],
{4}2xv3-5[4:1],{32}D1,A8,D8,A7,,,,,{4}7xv6-4[4:1],{32}D1,A1,D2,A2,,,,,{4}3-1[8:1]*-7[8:1],
3,{8}8,7/1,6/2,5/3,
{4}7xv8<5[4:1],{32}D1,A1,D2,A2,,,,,{4}2xv1>4[4:1],{32}D1,A8,D8,A7,,,,,{4}6-8[8:1]*-2[8:1],
6,{8}1-5[8:1],5-1[8:1],{4}1,
7-4[8:1],{24}7/D3,B2,B8,D8,,,{4}2-5[8:1],{24}2/D7,B7,B1,D2,,,{8}8x/1x,
2,3,4,8,7,6,5,
{1}4qq1qq6[1:1],
{4},A6,A3,Cf,
{8}4/5,6,4/5,{16}3,4,{8}3,1/2,1/8,7/8,
6-3[8:1],5,2-7[8:1],1,4,5,6,{24}8,1,2,
{8}3/5,{16}6,5,{8}6,4/5,8/7,8/1,2/1,3-6[8:1],
4,7-2[8:1],{4}8,{8}5,4,3,{24}1,8,7,
{4}4-2[8:1]/6-2[8:1],6-8[8:1]/4-8[8:1],6/4,{16}A1,A2,{8}A3,
{4}1-3[8:1]/7-3[8:1],7-5[8:1]/1-5[8:1],7/1,{8}4h[4:1],{24}5,6,7,
{8}8-4[8:1],3-8[8:1],8,3,5-1[8:1],2-5[8:1],5,2,
{16}8,7,6,5,3,2,1,8,4,5,6,7,{4}8-3[8:1]*-4[8:1],
8,6-2[8:1],6/3>8[8:1],{8}3,4,
{4}5-8[8:1]*-1[8:1],5,2-6[8:1],2/5<8[8:1],
5/4h[4:1],1>4[8:1],1/8h[4:1],5-7[8:1],
5/1-5[8:1],1<3[4:1],1/3,C,
1-6[8:1]*-5[8:1],1,3-7[8:1],3/6<1[8:1],
{8}6,5,{4}4-1[8:1]*-8[8:1],4,7-3[8:1],
7/4>1[8:1],4/5h[4:1],8<5[8:1],8/1,
1-3[8:1],1/5-1[8:1],5>7[4:1],5/7,
C,{8}5/6,{16}3,5,{8}3-6[8:1],4,{4}3,
{8}1,8,1,{16}6,4,{8}6-3[8:1],5,{4}6,
{8}2/4,3,5,4,{4}5-8[8:1]/3-8[8:1],3/5,
6-1[8:1]/4-1[8:1],4/6,7<3[8:1],7/4h[4:1],
{8}2,1/3,{4}8/2>6[8:1],2/5h[4:1],{8}7,8,
1-6[8:1],2,{4}3-8[8:1],{2}5w1[8:1],
{4}2-5[8:1],{8}7-1[8:1],6,2v4b[8:1],3,{16},,1,8,
{8}7<4[8:1],3,{4}7,{8}2>5[8:1],6,{4}2,
{8}8/1,2/7,{4}3/6,{32}D7,D8,D1,D2,{8}D3,,,5/4,
3/6,{4}2/7,{32}D3,D2,D1,D8,{8}D7,,,7,
5,6<3[4:1],4,,,,5,
{2}4q5[4:1],{4}C,E7/E3,
{8}1/8,1,2/7,7,3/6,3,4/5,{16}5,4,
{8}6,6,3,3,7,7,2,2,
{16}1,8,2,7,1,8,2,7,{32}1,2,3,4,5,6,7,8,1,2,3,4,5,6,7,8,
{2}1h[64:47],{4}8w4[8:1],A8f,
{128}2bxq4<1[2:11],6bxq8>5b[2:11],{384},,{48}D7/D3,B7/B3,B1/B5,{12}D2/D6,{1},,,,,{4},,,{12},{4}6h[8:3]/2-8[8:1],
2,3h[8:3]/7-1[8:1],7,
3V51[4:1],3,6V48[4:1],6,
1h[2:1],2<6[4:1],{8},,3,3,
{4}8h[2:1],7>3[4:1],{8},,6,6,
{2}7h[4:1]/4<1[4:1],{4}5xv7[8:1],5,
{2}3h[4:1]/8>5[4:1],{4}1xv4[8:1],1,
5-7>8[4:1],{8}5/8v6[4:1],2,{2}4h[4:1],
{4}1-3<4[4:1],{8}1/4v2[4:1],6,8h[4:1],{24},,,,,,1,8,7,
{4}6/4h[4:1],{8}1>4[8:1],1,8h[4:1],{16},,,,4/8,3/7,
{4}2/6,{8}5<8[8:1],5,{4}4h[4:1],1w5[8:1],
{8},,8-4[8:1],1,{4}8,{8}A3/D4/E4,{24}5,6,7,
{4}8,{8}1-5[8:1],8,{4}1,{8}A6/D6/E6,{24}4,3,2,
{4}1<4[4:1],6h[4:1],{8},,3/5,{24}5,6,7,
{4}8>5[4:1],3h[4:1],,6/4,
{8}3,3,5,5,4,4,6,6,
3-7[8:1],3,4-8[8:1],4,5-1[8:1],5,6-2[8:1],6,
{16}3,4,5,6,1,8,7,6,3,2,1,8,7,6,5,4,
{4}3h[8:3],5-2[8:1],5,4xw8b[8:1],
{32}4x>4[4:3]*<4[4:3],B4,C,B8,{8}A8,,,,,,,,,,,,,,,{2}A6h[1:2],
A3h[2:3],
A7h[1:1],A2h[2:1],
{1}E7f/E3f,
,{32}8/1pp8qq1[2:3],
2/7,{16}3/6,{1},{4},,,{16},,{32}4/5pp4qq5b[2:3],
6/3,{16}7/2,{1},{4},,,{8},{4}8h[4:3]/A4,
A3,A2,A1,
1h[4:3]/A5,A6,A7,A8,
5-7[8:1],{8}5,{16}1,2,{4}3-1[8:1],{8}3,{16}7,6,
{4}5-1[8:1],{8}5,{16}2,3,{4}4-8[8:1],4,
{16}5x,6x,7x,8x,E6,E7,{8}E8,{16}4x,3x,2x,1x,E4,E3,{8}E2,
{16}1x,2,3,4,5,6,7,8,{8}1-3[8:1],5-1[8:1],1,5,
{4}4h[4:3],{8}8,{16}8,7,{8}6,5,5,4,
{4}5h[4:3],{8}1,{16}1,2,{8}3,4,4,5,
6/3,7/2,1/8,4/5,3/6,2/7,1/8,1/8,
{16}2,5,4,7,1,8,2,7,{32}A3,A4,A5,A6,A7,A8,A1,A2,{4}A3/Cf,
{32}8b-4[8:1]/1b-5[8:1],2/7,3/6,4/5,,,,,{4}8/1,{8}7-4[8:1],{16}2,3,{8}7/4,{16}1,2,
{8}3-7[8:1],4,5<8[8:1],6,2-6[8:1],3,{4}1-5[8:1]*-3[8:1],
1,6-2[8:1]*-8[8:1],6,{8}1V38[4:1],5,
{4}1,{16}4,5,6,7,{8}8,1,{16}8<4[8:1],1,2,3,
{4}4/8-3[8:1],{8}8/6-2[8:1],5,4>1[8:1],3,7-3[8:1],6,
{4}8-4[8:1]*-5[8:1],8,{8}3-1[8:1],4,3,{24}5,6,7,
{8}8<4[4:1],8,4>8[4:1],4,{2}1h[4:1],
{4}8-3[8:1]/1-6[8:1],1/8,{8}4/5,6,3,7,
{4}6-1[8:1]/3-6[8:1],6b/3b,8-5[8:1]/3-8[8:1],8b/3b,
5x-2[8:1]/4x-7[8:1],4/5,{8}1/8,7,2,6,
{4}7-4[8:1]/2-7[8:1],7b/2b,5-8[8:1]/2-5[8:1],5b/2b,
1>5[4:1],5<1[4:1],1,{8}5,5,
{4}3-6[8:1]/7-2[8:1],7/3,8-5[8:1]/4-1[8:1],4/8,
{16}A1,A2,A3,A4,A8,A7,A6,A5,{8}1-5[8:1],5,{4}1,
{32}5bx/4bxqq5pp4[2:3],E6/E4,B6/B3,B7/B2,{8}E8/B8/B1/E2,,,,,,,,,,,,,{4}Cf,
{8}8/1,2,8/1,{16}7,8,{8}7,5/6,5/4,3/4,
2-7[8:1],1,6-3[8:1],5,8,1,2,{24}4,5,6,
{8}7/1,{16}2,1,{8}2,8/1,4/3,4/5,6/5,7-2[8:1],
8,3-6[8:1],{4}4,{8}1,1,3,3,
8-6[8:1],{24}1,2,3,{8}4/8-4[8:1],{24}1,2,3,{4}8/4,{8}5/3,2/6,
1/7,{16}8,2,{8}8,{16}1,7,{8}1-3[8:1],{24}8,7,6,{8}5/1-5[8:1],{24}8,7,6,
{4}1/5-1[8:1],{8}8,{16}8,7,{8}6,4/5,1,{16}1,2,
{8}3,4/5,6,4/5,{4}3>7[4:1],7<3[4:1],
{2}5h[2:1],{8}7,4,5,2,
{4}3-1[8:1]/4-1[8:1],3/4,{8}6,4,7,5,
{4}7-5[8:1]/8-5[8:1],7/8,{8}4/3,2,5,2,
5/6,7,4,7,8/1,{24}1,2,3,{8}4,{24}8,7,6,
{8}1/5,{16}1,7,{8}3,3,5,{16}5,3,{8}7,7,
E2,{16}6,4,{8}6,3,E8,{16}3,5,{8}3,6,
8h[4:1],{24}1,2,3,{8}4-8[8:1],7-4[8:1],4,7,1-5[8:1],6-1[8:1],
1,6,{16}4,3,2,1,7,6,5,4,8,1,2,3,
{128}8x>5p8[4:15],4x<1p4b[4:15],
E
