&title=∞bit Sequencer
&artist=Laur
&first=-0.01
&lv_5=14
&des_5=アルホス
&inote_5=
(128){16},,,,,,{8}Ch[16:1],{64},,,,,,,,D7,A7/A6,E8/E6,B8,C,B4,E2/E4,A2/A3,{8}D3,3bx/2bx,
{16},,2,7-4[0.3516##0.1172],{8}1,7b/2-6[0.3516##0.1172],{16},2b/8w4[0.3516##0.1562],,,{8}8b,Cf,
{16},,7,2-5[0.3516##0.1172],{8}8,2b/7-3[0.3516##0.1172],{16},7b/1w5[0.3516##0.1562],,,{8}1b,Cf,
{16},,3,7-5[0.3516##0.1172],{8}1,7b/2-6[0.3516##0.1172],{16},2b/8-4[0.3516##0.1172],,,{8}8b,1-5[0.3516##0.1172],
{16},1bw5[0.3516##0.1562],,,1b,,,Ch[16:3],,,,,,,{8}5/3h[4:1],
{16},,,,6,4,{8}7h[8:1],5h[8:1],4h[8:1],,2,
{16}5,3,,,{8}6h[8:1],8h[8:1],1h[8:1],3h[8:1],,4/6h[4:1],
{16},,,,3,5,{8}2h[8:1],4h[8:1],5h[8:1],{16},,7,7,
5,7,,4,{8}4,5h[16:5],{16},,8,1,2/6,3/7,{8}4v1[16:1]/8v5[16:1],
,8x/4x,{16},,2-4[16:1],8,1,7,2xqq5[16:5],6,{8}6,7-4[16:1],
,7x,{16}3,3-8[16:1],,,,3,{8}7v4[16:1],6,7pp2[8:3],
{16}8,8,,4,5,6,{8}7-4[16:1],,7x,1-4[16:1],2,
{16}1,7,,2,1,2,8,8,7,7,6,6,5,5,{8}4x<7[0.3516##0.1758],
{16},4>1[0.3516##0.1758],,,{8}4,{64}8bx,B8,Cf,B4,{16}4x-7b[0.3516##0.2344]*-1b[0.3516##0.2344],,,,,,,{8}5x>2[0.3516##0.1758],
{16},5<8[0.3516##0.1758],,,{8}5,{64}1bx,B1,Cf,B5,{16}5xz1b[0.3516##0.2344]*s1b[0.3516##0.2344],,,,,,,{8}7x-5[0.3516##0.1172],
{16},7/1-4[0.3516##0.1172],,,{8}1,8-3[16:1],{16},7,{8}8,6,4/5x-1[16:1],
{16},4,{8}5,3,2/8,{16},,3,7,4,6,{8}5x-3[0.3516##0.1758]*-2[0.3516##0.1758],
{16},5-7[0.3516##0.1758]*-8[0.3516##0.1758],,,{8}5,{64}1bx-5q4b[0.3516##0.4102]*-5p6b[0.3516##0.4102],B1,Cf,B5,{16}A5,,,,,,,{8}4x-6[0.3516##0.1758]*-7[0.3516##0.1758],
{16},4-2[0.3516##0.1758]*-1[0.3516##0.1758],,,{8}4,{64}8bx-4-1b[0.3516##0.1758]*-4-7b[0.5859##0.1758],B8,Cf,B4,{16}A4,{32},,,,,E2,,,,E7,,,{8}2x-5[16:1],
{16}1,8,{8}2,8,7x-4[16:1],{16}8,1,{8}7,2,6,
{32},,1,2,{16}3,{32}7,6,{8}5,8-4[16:1],,8w4b[32:3],,8b-4pp8pp4[2:3],
,,,,,,,,,,,,,,,1b,
,2h[8:1]/3h[8:1],,3h[8:1]/4h[8:1],,4h[8:1]/5h[8:1],,6h[8:1]/5h[8:1],
,6h[8:1]/7h[8:1],,A7/A8/E7/E1/B7/B8/D8,D6/E6/B5/D5/B4/E4/D4/E5,A2/D3/B1/A1/D2/E1/D1/E2f/A3/B3,,4x/5x,
3,{16}5,3,,3,{8}4x/5x,6,{16}4,6,,6,{8}5x/3x,
2,{16}4,2,,2,{8}4x/6x,7,{16}5,7,,7,4,4,
6,6,2,2,8,{32}8,B2,B3,B4,B5,B8,B7,B6,B5,1x,2,3,4,1x,8,7,{16}6,5x,5x,
5x,5x,5x,5x,5xqq5[16:3],5x-7[16:1],5x<6-8[8:1],5xq1[16:1],5x,5x,{64},,,,,,,,,,,,,,,,1bx-5pp8b[8:7],B1,Cf,B5,{16}A5,
,,{8}3<5>3[6:1],{4}2,{8},2-6-3-5[4:1],{4}1,
{8},8<5[8:1],{4}8>3[8:1],{8},7-4pp8b[8:7],8,{64}7bp2[8:1],E7,B5f,A4,{4},{16},,,{8}1x>4[8:1],
4>1[8:1],,,5q7[16:3],
2/7,,,3>8[12:1]/8x<5[12:1],4,3/8V24[8:1],,A8/D8/B8/B7/B6/B5/A5/D6/E7f,
,7v4[12:1],6,3v8[12:1],3-6[12:1],,,1V38b[4:1],
3,7-4[8:1],{4}4-6z2-6[2:1],,{16},,,{64},E2,E3,E4,
{8}E5,5xpp5[16:3],,5-1[8:1]/4v2[8:1],{48},,,,,,,,,,,,,,,,,,B7/B2,B6/B3,{12}B5/B4,
{48},,,,,,E8/E2,E7/E3,E6/E4,E5,,,,,,,,,D1,D8/D2,D7/D3,D6/D4,{24}D5,,,,{8}A7/D7/A6/B6/B7/E8/E6/B4/B1/A1/A4/B3/A3/B2/A2/C,{64},,,,,,,,8bx-4qq1b[8:7],B8,Cf,B4,{16}A4,
,,{8}6>4<6[6:1],{4}7,{8},7-3-6-4[4:1],{4}8,
{8},1-6[12:1],1-3[16:1],1-5[12:1],1-4[12:1],1-6<1qq6b[24:23],1,{64}1b,E1,B7f,A6,,,,,,,,,,,,,{8}3>8-3[4:1],
5,3<5-2[24:5],{4},{16},,{64}D7/D3,A7/A3,D8/D4,A4/A8,{16}D5/D1,
,,{8}3x/7x,1,2/4z8[8:1],8-4[8:1],{64},,,,,,,,,,,,,,,,1b-5qq4b[32:7],B1,Cf,B5,{16}A5,
,,,,,,7-3[12:1],5,{8}8-5[12:1],7x,8x,1-4[8:1],
4>6[16:3],,,5-2[12:1],4-8[12:1],5x,{32}4x,{64},,,,,,,,A1,D2,A2,D3,A3,D4,
A4,D5,,,,,,,{8}5xpp5[16:3],,5-1[8:1]/4v2[8:1],{48},,,,,,,,,,,,,,,,,,B8/B2,B3/B7,{12}B6/B4,
{48},,,,,,E1/E2,E8/E3,E7/E4,E6/E5,,,,,,,,,1x-5qq8[16:5],A8/A2,A7/A3,A6/A4,{24}5xqq7[48:11],,,,,,,,,,{8}Cf,
{4},,,{16},,{24},{12},
{1},,,,,,,,,,,,,,,,,,,,,,,,,,,,,,,,,,,,,,,,,,,,,,,,,,,,,,,,{4},,{2}Ch[8:1],
E
