&title=アイの庭
&artist=Duca
&first=0
&des_5=Kondou
&lv_5=13
&inote_5=(120){4},,,
(40){24}
3h[6:1]/4h[6:1],,,,,,4h[6:1]/5h[6:1],,,,,,6h[6:1]/5,,4,,3,,2h[6:1]/4,,5,,6,,
71,,,2,2,,3,,4,,5,,6/5,,7,,5,,3h[12:1],,4h[12:1],,2h[12:1],,
1h[6:1],,,,,,8h[6:1]/4h[6:1],,,,,{84},,7,6,5h[168:42],,,{24},,,,,,,
,,,,
3-1[16:1],,,,4,,5p1[12:1],,,,6,,7v1[12:1],,,,8,,1,,,,1,,
2-5[12:1],,3,,4,,6-1[12:1],,7,,8,,2>6[6:1]*q7[6:1],,,,,,,,,,,,
7pp1[12:1],,,,6,,5-2[12:1],,,,4,,3^5[16:1],,,,2,,1,,,,1,,
8^5[12:1]*p4[12:1],,,,1,,8pp2[12:1],,,,1,,7<3[6:1],,,,,,
,,,,1,,
8p4[12:1],,1,,1h[12:1],,8q5[12:1],,2,,2h[12:1],,8qq1[6:1],,3,,3h[12:1],,
8,,4,,4,,7p3[12:1]/3,,5,,6,,2qq8[12:1]/7,,1,,8,,2>6[6:1]/6p1[6:1],,,,,,
,,,,,,
7-4[12:1],,6,,5,,4-1[12:1],,3,,2,,1V38[6:1],,,,7,,7,,,,7,,
6-3[12:1],,2,,3,,4-7[12:1]*-8[12:1],,,,3,,4qq5[6:1],,,,,,,,,,,,
7-5[16:1],5,8-2[16:1],2,4,,,,,,,,3p6[12:1],5,2^7[12:1],8,4,,,,,,,,
5/4qq5[6:1],,6,,7,,8q1[6:1],,,,7,,6>2[8:1],,,,7,,8,,8,,8,,
6h[6:1]/5,,7,,8,,3h[6:1]/4>5[6:1],,2,,1,,8pp8[6:1]/4pp4[6:1],,,,,,,,,,,,
5pp5[6:1]*qq5[6:1],,64,,73,,5,,,,,,3-5[16:1],,1-7[16:1],,7-3[12:1],,3,,,,,,
2-8[16:1],,6-4[16:1],,4-8[12:1],,2,,,,,,3qq5[6:1],,8,,6,,4pp3[6:1],,7,,1,,
8>6[6:1]*pp7[6:1],,,,7,,8,,,,,,8^5[12:1]/5^2[12:1],,2p5[12:1],,5p8[12:1],,8,,,,,,
1^6[12:1]*pp3[12:1],,3p5[12:1],,5>1[12:1],,1,,,,
6,,8bqq8[6:1]*pp8[6:1],,,,,,8qq3[6:1]*pp5[6:1],,,,,,8<8[6:1]*>8[6:1],,,,,,8,,,,,,1bqq1[6:1]/2bpp1[6:1],,,,,,1qq6[6:1]/2pp5[6:1],,,,,,1<2[6:1]/2>1[6:1],,,,,,,,,,,,
(39){24}3h[6:1]`4,,,,,,
(38){24}6h[6:1]`5,,,,,,
(37){24}4`5,,3,,
(38){24}2,,
(37){24}1h[12:1],,,,2,3,
(39){24}45,,,4,
(37){24}6,,
(35.5){24}65,4,3,2,
(32){24}1,
(22){24}8,
(25){240}7,6,5h[800:287],,,,,,,,
(29){24}4,3,2,
(23){24}1,
(19){24}8,
(17){24}7,,6,,
E
