&title=おちゃめ機能
&artist=ゴジマジP
&first=0
&des_6=SeiKA
&lv_6=13+
&des=SeiKA
&inote_6=(150){1},
{4}5h[8:1]/6h[8:1],4h[8:1]/3h[8:1],5h[8:1]/7h[8:1],4h[8:1]/2h[8:1],
{4}5h[8:1]/6h[8:1],4h[8:1]/3h[8:1],5h[8:1]/7h[8:1],4h[8:1]/2h[8:1],
{4}5h[8:1]/6h[8:1],4h[8:1]/3h[8:1],5h[8:1]/7h[8:1],4h[8:1]/2h[8:1],
{16}1b,,,1b,,,2-5[8:1]/8-5[8:1],,,,,,,,,,
{16}34,,5,,24,,5,5h[16:7],,,6,,8,,2,,
{16}34,,5,,24,,5,5h[16:3],,,1,,2,8,3,,
{16}34,,5,,24,,5,5h[16:7],,,7-2[8:1],,7,,,,
{16}6-3[8:1],,3-7[4:1],,6,,,,,,2,,2b/8b,,,,
{16}65,,4,,75,,4,4h[16:7],,,3,,1,,7,,
{16}65,,4,,75,,4,4h[16:3],,,8,,7,1,6,,
{16}65,,4,,75,,4,4h[16:7],,,2-7[8:1],,2,,,,
{16}3-6[8:1],,6-2[4:1],,3,,,,,,7,6,5-1[8:1],,,,
{4},,,,
{16}1,,7,8,7,,2,1,2,,7,,6b/7b,,,,
{8}4-1[8:1],3,,3,4-8[8:1],3,,3,
{8}4-7[8:1],7-3[8:1],3>8[4:1],,4h[4:1],,,,
{8}5-8[8:1],6,,6,5-1[8:1],6,,6,
{8}5-2[8:1],2-6[8:1],6<1[4:1],,5h[4:1],,,,
{8}7-4[8:1],3,,3,7-2[8:1],3,,3,
{8}4-8[8:1],4-1[8:1],4<7[4:1],,,,,,
{8}2-5[8:1],6,,6,2-7[8:1],6,,6,
{8}5-1[8:1],5-8[8:1],5,,{16}2,3,4,5,1b/6b,,,,
{16}57,,3,4,3,,2,,17,,6,7,6,,5,,
{16}2/4-8[8:1],,3-6[8:1],,4,,3,,7-4[8:1],,,,6b,,,,
{16}42,,6,5,6,,7,,82,,3,2,3,,4,,
{16}7/5-1[8:1],,6-3[8:1],,5,,6,,2-5[8:1],,,,3b,,,,
{16}6,,4,5,4,,3,,25,,7,8,7,,6,,
{16}5-2[8:1],,2-6[8:1],,5<8[4:1],,,,,,,,1b,,,,
{16}3,,5,4,5,,6,,74,,2,1,2,,3,,
{16}4-7[8:1],,7,,4,,,,8,1,2,3,4b/6b,,,,
{16},,1,,12,,8,,7,8,7,,1,2,3,4,
{16}6,,6,,4,,3,,12,,8,,67,,5,6,
{16}4,,4,5,3,,3,4,2-7[8:1],3,1-5[8:1],,,,,,
{16}4,,3,4,5-1[8:1],6,5,,8b,,,,2,,,,
{16}12,,3,2,3,,7,6,7,6,5-8[8:1],4,,,,,
{16}2,,3,2,3,,7,6,7-4[8:1],6,5-2[8:1],,,,,,
{16}8,1,8,,78,,6,,4,3,4,3,5b,5b,,,
{16}1b,,,1b,,,2-5[8:1]/8-5[8:1],,,,,,,,,,
{16}3>8[8:1],,4,,3/7,6,5<8[8:1],4,,,1,,2,,3,,
{16}4>1[8:1],,5,,4/8,7,6<1[8:1],5,,,2,,3,,4,,
{16}5>2[8:1],,6,,5/1,8,7>2[8:1],6,,,3,,4,,5,,
{16}6-2[8:1],,2-7[8:1],,7<4[4:1],,,,,,8b,,8b,,,,
{16}6<1[8:1],,5,,6/2,3,4>1[8:1],5,,,8,,7,,6,,
{16}5<8[8:1],,4,,5/1,2,3>8[8:1],4,,,7,,6,,5,,
{16}4<7[8:1],,3,,4/8,1,2<7[8:1],3,,,6,,5,,4,,
{16}3-7[8:1],,7-2[8:1],,2>5[4:1],,,,,,1,2,3-7[8:1],,,,
{16}3b,,,,,,6,7,6,,6,5,,5,4,,
{16}3-8[8:1]/5,,3,,1-6[8:1],,1,,4-7[8:1],,4>1[8:5],,,,,,
{16},,,,,,,,,,8,,17,,28,,
{16}1-5[8:1]/3,,4-8[8:1],,1,,4,,,,17,,2,3,4,,
{16}5-2[8:1]/6-3[8:1],,56,,56,,,,1,,8,,78,,6,,
{16}5>2[6:1],,3>8[6:1],,1<6[6:1],,,,,,5,,4,,3h[8:3],,
{16},,2,,2>5[4:1],,,,,,,,,,7,8,
{16}7,,45,,23,,18,,,,47,,2b/5b,,,,
{16}1,,1,,28,,7,6,1,,1,,28,,7,6,
{16}1,,1,,28,,7,6,1-5[16:1],,1b,,1b,
E
