&title=Snow Veil -少女と獣の森-
&artist=葉月ゆら
&first=0.021000009
&des=Hakusei
&des_5=
&lv_5=13.999
&inote_5=(160){4},{8},,,,,,2h[8:1],
1,7h[8:1],8,1,{24}2,3,4,{8}5/6,7,
8<5[8:1],8,1,2,{2}3v8[8:1]*v6[8:1],
{8}7h[8:1],5,3h[8:1],5,6,7,{16}1,8,{8}1,
{2}1h[4:1]/8qq5[2:1],{4}1h[8:1],2h[8:1],
{8}7h[8:1],8,2h[8:1],1,8,{24}7,6,5,{8}4/3,2,
1>4[8:1],1,8,7,6h[4:1],5,{16}2,1,{8}2,
8-4[8:1],8,2-5[8:1],2,7-3[8:1],7,4-8[8:1],4,
{1}1qq6[2:1],
{12}E2,E3,E4,E8,E7,E6,2,8,2,7-3b[4:3],1,7,
,,,,,,,,,,,,{4}5b/2-5[8:1],
{8}2/6,7,{4}8-4[8:1],{8}8/1>5[4:1],1,
{4}5<1[4:1],1>5[4:1]*V35V71[2:1],{8},,,,,,2/1,
3,{4}5/4h[4:1],{8}8-3[8:1],3V17[16:3],
8,,,4-2[8:1],{2}4-6[8:1],
{4}1<6[4:1],6>3[4:1],3>8[4:1],8V64[4:1],
4V28[4:1],8<4[4:1],4>8[4:1],8p4[4:1]*q5[4:1],
{8},,,7,7h[8:3],{16},,,,3,3,
{8}8h[4:1],,,1,{4}1h[4:1],8,
2/7-4[8:1],{8}7/3,2,{4}1-5[8:1],{8}1/8<4[4:1],8,
{4}4>8[4:1],8<4[4:1]*p4-1[2:1],{8},,,,,,7/8,
6,{4}4/5h[4:1],{8}1-6[8:1],6-2-8[16:3],
1,,,5-7[8:1],{2}5-3[8:1],
{4}8>3[4:1],3<6[4:1],6<1[4:1],1V35[4:1],
5V71[4:1],1>5[4:1],5<1[4:1],1q5[4:1]*p4[4:1],
{8},,,2,{4}2h[4:1],8-4[8:1],
8/3-6[8:1],{8}3,{16}7,7,{2}4pp1[4:1],
{4}8-4[8:1],8/7,5-1[8:1],5/4,
{8}2,2h[8:1],1,1h[8:1],8,8h[8:1],7,7h[8:1],
3h[8:3],E8,E7,E6,,E7/E3,{16},,4,5,
4-8[8:1],,,3,{8}4,2,{2}1h[4:1],
{4}1-5[8:1],1/2,4-8[8:1],4/5,
{8}7,7h[8:1],8,8h[8:1],1,1h[8:1],2,2h[8:1],
7,7/8,3,4/3,{16}2,5,2,5,1,6,1,6,
1b/7b,,,3b/5b,,,{8}2b/8b,{4}8b/2bw6[8:1],Cf,
{16}7<4[8:1],,,8,{8}7,2,{16}3-8[8:1],,,5,{8}3,6,
{4}6-3[8:1],6V82[4:1]/2-4[8:1],2V47b[4:1],4bx,
{16}3-8[8:1],,,5,{8}3,6,{16}7h[4:1],,,1,{8}1-3[8:1],8,
1-7[8:1],6,1-5[8:1],6,{4}1w5[8:1],1b/Cf,
7-4[8:1],7/1-5[8:1],6-8[8:1]/1-3[8:1],6/1,
{16}5h[8:1],,,5h[8:1]/4h[8:1],,,{8}3/6,{4}6/3V17[4:1],3/5,
{8}6,6,1,1,7/8,6,3/4,2,
{16}8,1,8,1,5,3,5,3,5b/4b,,,7b/5b,,,{8}7b/1b,
{16}2>5[8:1],,,1,{8}2,7,{16}6-1[8:1],,,4,{8}6,3,
{4}3-6[8:1],3V17[4:1]/7-5[8:1],7V52b[4:1],5bx,
{16}6-1[8:1],,,4,{8}6,3,{16}2h[4:1],,,8,{8}8,1,
7,{16}6,5,{8}6,4/7,{4}4>1[8:1]/7<4[8:1],4b/7b,
8-4[8:1],8/2>5[8:1],{16}6/2,,,6,,,{8}7,
8h[2:1],1,1,4,{4}4h[4:1],{8}6b,{16}3,5,
{8}3,3,3/7,7,{32}7/1,2,3,4,{8}5,{16}7,6,7,6,
8bh[8:1],,,7bh[8:1]/1bh[8:1],,,{8}2bh[8:1],{16}4bh[8:1],,,3bh[8:1]/5bh[8:1],,,{8}2b/6b,
{1}2b>2[2:3]/6b<6[2:3],
{4},,,,E2,
B4/E4,B7,{8}B2,B6,
E3,E7,{4}Ch[4:1],,,{1}4/5-1[2:3],
2,
5/4-8[2:3],
7,
{8}7h[8:1],8,2h[8:1],1,6h[8:1],5,3h[8:1],4,
7-3[8:1],7,8-4[8:1],8,1-5[8:1],1,2-6[8:1],2,
7,7,8/1,2,4/3,{16}3,5,4,6,{8}5,
7,7,8/1,2,3/4,{16}3,5,4,6,{8}5,
7/8,6,7/8,1,3/4,5,3/4,2,
1-5[8:1],1,8-4[8:1],8,7-3[8:1],7,6-2[8:1],6,
4,4,3/5,3/5,2/6,2/6,7/1,1/7,
{16}8,8,8,8,8,8,8,8,8,8,8,8,{4}8h[4:1],
{16}2,8,1,7,5,6,4,5,2,8,4,5,1,7,3,4,
2,1,{8}2,{16}4,5,{8}4,{16}7,3,7,3,{24}7,6,5,1,2,3,
{16}7,4,6,3,1,2,8,1,6,4,8,1,5,3,7,8,
6,6,{8}5,{16}3,3,{8}4,{16}6,2,6,2,7,1,{8}7,
{16}8,7,6,8,1,2,8,7,6,1/5,2,3,8/4,7,{8}6,
{16}1,2,3,4,1,8,7,6,8,1,2,3,4/5,6,7,8,
2,1,2,1,4,5,4,5,8,7,8,7,3,4,3,4,
{32}1,2,{16}3,5,5,{32}1,2,{16}3,{8}5,{16}6,4,6,4,7,5,7,5,
8b,,,2b/4b,,,{8}6b/4b,{16}6b/8b,,,8b/1b,,,{8}2b/7b,
{1}2b>8[2:1]/7b<1[2:1],
{2}C/E1/D1,E2,
C/E3/D3,E4,
C/E5/D5,E6,
C/E7/D7,E8,
C/E1/B1/B8,C/B2/B3/E3,
C/B5/B4/E5,C/B7/B6/E7,
{8}3,3,5,5,2/1,2/1,7/5,7/5,
{32}1,2,{16}3,{8}5h[16:1],{32}1,8,{16}7,{8}5h[16:1],{16}1b,,,6b/B2f,,,{8}3b/B7f,
5/4-8[8:1],{16}5,3,{8}4,2,2>5[8:1],{16}1,8,{8}2,7,
6-8[8:1],5,6-4[8:1]/2-6[16:3],1,{4}2/6V83b[4:1],5b,
{8}5-1[8:1],{16}4,6,{8}5,7,7<4[8:1],{16}8,8,{8}7,1,
{16}2h[8:1]/3h[8:1],,,2h[8:1]/3h[8:1],,,{8}1/4,{4}4/1>4[8:1],{32}1b/4,5,6,7,8,1,2,3,
{4}4/1-5[8:1],1/5,{8}7/3-8[8:1],{16}4,5,{8}3,6,
7-4[8:1],4-8[8:1],7,1,{4}2h[4:1],{8}4b,{16}3,5,
{8}3,3,3/5,5,{24}5,4,5,3,{48},{16}6,3,7,2,7,
{8}1b,{16}7,6b/8b,,,{8}2b/B8,6b,{16}4,3b/5b,,,{8}2b/6b,
{1}2bp2[4:5]/6bp6b[4:5],
{8},,,,,,,,1/3,
4,5/7,8,{16}2,1,{8}3,{16}3,4,3,5,
{4}2-6[8:1],2/8,{8}7,7/5,3,1/3,
8-4[8:1],5/4-7[8:1],8,2,1,{24}1,2,3,{8}4/6<1[8:1],5,
6/4,3,2>5[8:1],{16}8,8,{8}2,7,{16}6,4,5,3,
{8}8-4[8:1],7,8/2-6[8:1],3,2/7,8,{16}8,7,6,5,
2,4,1,1,7,8,6,6,{32}1,2,3,4,8,7,6,5,1,2,3,4,8,7,6,5,
{12}1,1,1,5,5,5,2,4,2,7,5,7,
{1}Cf,
C/E1/D1,
{32},C/E3/D3,{1},{16},{8}C/E5/D5,
{1},{16},,,{32},C/E7/D7,
E
