&title=Aurora
&artist=Lime
&first=0.16
&des=Neya
&lv_5=14
&inote_5=(178)
{1},
{8}3qq6[8:6]/6,4,5,6,,,,,
{8}1x<5[8:4]*>5[8:4],,,,,,,,
{8}36,4,5,6h[4:1],,4h[4:1],,1z5[8:4],
{1},
{8}6pp3[8:6]/3,5,4,3,,,,,
{8}8x>4[8:4]*<4[8:4],,,,,,,,
{8}63,5,4,3,{16}7,6,5,4,1,2,3,4,
{8}8-5[8:1],,3,2-5[8:1],,6,6,,
{16}7h[4:1]/5,,,,4,,6,,3,4,3,,17,,,,
{16}2h[4:1]/4,,,,5,,3,,6,5,6,,28,,,,
{16}75,,64,,35,,4-7[8:1]/2,,,,3-8[8:1],,,,5^8[8:1]*^2[8:1],,
{16},,,,,,27,36,4-1[8:1]/5,,,,8,,,,
{16}7/1h[4:1],,,,4,,2,,6,5,6,,73,,73,,
{16}2/8h[4:1],,,,5,,7,,3,4,3,,26,,26,,
{16}1,7,2,6,3,5,4,6,3,7,2,8,1-5b[8:1],7,3,5,
{16}1b,,,,,,,,3,4,5,6,3,4,5,6,
{16}3^8[8:1],,,,63,,5^8[8:1],,,,15,,2,,3/7-4[8:1]*-3[8:1],,
{16},,7,,,,2,,2,3,4,5,8,7,6,5,
{16}1-5[8:1],,,,16,,7-4[8:1],,,,37,,2,,1^4[8:1]/5^8[8:1],,
{16},,15,,,,7,,7h[8:1],,3,5,2h[8:1],,6,4,
{16}8^5[8:1],,,,38,,2^5[8:1],,,,62,,7,,4-7[8:1]*-8[8:1]/8,,
{16},,4,,,,1,,1,2,3,4,7,6,5,4,
{16}2b-5-1[8:2],,,,25,,6hb[8:3],,,,,,8,1,2,3,
{16}7b-3-8[8:2],,,,57,,4hb[8:3],,,,,,8,2,7,3,
{16}5-8[8:1],,,,45,,2^5[8:1],,,,26,,7,,8-4[8:1]/4^1[8:1],,
{16},,48,,,,5,,5,6,7,8,2,3,4,5,
{16}7p3[8:1],,,,78,,2^7[8:1],,,,26,,5,,4-7[8:1]/8-3[8:1],,
{16},,48,,,,2,,2h[8:1],,4,3,7h[8:1],,5,6,
{16}4-1[8:1],,,,54,,7^4[8:1],,,,73,,2,,1-5[8:1]/5^8[8:1],,
{16},,51,,,,4,,4,3,2,1,7,6,5,4,
{8}2bqq7[8:4],3,4,5,,,,,
{8}6pp4[8:4],5,4,3,,,,,
{24}2bx,3x,4x,5hx[8:2],,,,,,1bx,8x,7x,6hx[8:2],,,,,,2bx,3x,4x,5x,,,
{16}7,3,7,3,6,4,6,4,5,3,5,3,6,2,7,1,
{24}7bx,6x,5x,4hx[8:2],,,,,,8bx,1x,2x,3hx[8:2],,,,,,7bx,6x,5x,4x,,,
{16}2,,2,6,2,,2,4,2,,2,6,2,,17,,
{24}2bx,3x,4x,5x,,,,,,3bx,4x,5x,6x^1[8:1],,,,,,2bx,3x,4x,5x,,,
{16}8,3,8,3,7,4,7,4,6,5,6,5,7,3,8,2,
{24}7bx,6x,5x,4x,,,,,,6bx,5x,4x,3x^8[8:1],,,,,,7bx,6x,5x,4x,,,
{16}1,2,3,4,6,7,8,1,5,4,3,2,18,7,6,5,
{16}2x,,1,,2,,3x,,2,,1,,2hbx[4:1]/8bx,,,,
{16}7,6,5,4,8,7,6,5,1,8,7,6,54,3,2,1,
{16}7x,,6,,7,,8x,,7,,6,,7hbx[4:1]/5bx,,,,
{16}3,,3,5,3,,3,1,3,,3,5,3,,46,,
{16}2x,,1,,2,,3x,,2,,1,,2hbx[4:1]/8bx,,,,
{16}7,6,5,4,8,1,2,3,45,6,7,8,15,4,3,2,
{16}1b/7b-3[8:1],,,,37,,2b-5[8:1],,,,26,,8b<1[8:6]*>7[8:6],,,,
{1},
{8}B1,,,B3/B4/B6/B7,,6,5,4-2-8-6[8:5],
{1}3-1-7-5[8:4],
{8}E8,,,E6/E5/B5/E2/E3/B2,,3,4V26-1[8:4],5,
{8}6,,,,7,7,1,1,
{8}C,,,E6/E5/E4/E7/A4/A6/A5/B5,,,{64}3,4,,,,,,,{8}3,
{8}5,,8,8,,65,,,
{8}3>5[8:4]/5,,,4,4,,,,
{8}6<4[8:4]/4,,,5,5,,,,
{12}1,4,2,6,4,5,3,5,4,8,5,7,
{12}2,3,4,7,6,5,4-7[12:2]/8-3[12:2],,,,,,
{12}8,2,2,7,1,1,6^3[12:2],,,8,,,
{8}2-5-8[12:4],,,1,1,,,{24}1/8p3[8:13],27,3<8[24:37]/6,
{1}4b/5b,,
{16}E4,E5,E6,,,,,,,,,,,,,,
{1},
{4}8h[2:3]/Cf,,6,,4,,2,,
{16}3,4,1,4,3,,6,5,7-3[8:1],,3,,7,,2^5[8:1],,
{16},,{24}26,7,8,1,,,{16}4,4,8-5[8:1],,5,,8,,3^8[8:1],,
{16},,{24}37,6,5,4,,,{16}1,1,6-1[8:1],,2-5[8:1],,6,,2,,
{16},,{24}15,8-6-2-4[24:8]/4,7-1-5-3[24:7]/3,62
,,,{16},,,,,,,,,,
{16}6,5,8,5,6,,3,4,2-6[8:1],,6,,2,,7^4[8:1],,
{16},,{24}37,2,1,8,,,{16}5,5,1-4[8:1],,4,,1,,6^1[8:1],,
{16},,{24}26,3,4,5,,,{16}8,8,3-8[8:1],,7,,3,,5,,
{16}B1f/E2/B2/A1/A2/D2/4bx-7[8:1],,,,,,,,C/B8f/E8/B7/E7/B6/5bx-1[8:1],,,,,,,,
{16}2,8,3,7,5,6,4,5,1,7,2,6,4,5,3,4,
{16}2-5[8:1],,5,5,2,,7^4[8:1],,8^3[8:1],,7-3[8:1],,8,,7,,
{4}1hb[8:3],{32}A2,E3,E4,A4,,,,,{4}8hb[8:3],{32}A7,E7,E6,A5,,,,,
{4}3hb[8:3]/4b,{32}A2,E2,E1,A8,,,,,{4}6hb[8:3]/5b,{32}A7,E8,E1,A1,,,,,
{16}7x/3x,,6,5,6,,28,,5,4,5,4,7,1,7,1,
{16}2x/6x,,3,4,3,,17,,4,5,4,5,2,8,2,8,
{16}3,7,3,7,2,6,2,6,1,5,1,5,8,4,8,4,
{24}1x,2,3,45,6,7,1x,2,3,45,6,7,1x,2,3,45,6,7,{32}2x,3x,4x,5x,6x,7x,8x,1x,
{16}2bx/6bxv1[8:1],,,,56,,4bx-7[8:1],,,,34,,1bx,,,,
{16}2,8,2,8,1,7,1,7,2,3,6,5,1,2,7,6,
{16}3bxv8[8:1],,,,43,,5bx-2[8:1],,,,65,,8bx,,,,
{16}71,,6,2,4,,3,5,4,,7,1,4,,26,,
{16}5bx-8[8:1],,,,35,,5bx^2[8:1],,,,85,,6bx,,,,
{16}1,7,1,7,3,5,3,5,1,2,7,6,2,3,8,7,
{16}4bx-1[8:1],,,,64,,4bx^7[8:1],,,,14,,3bx,,,,
{16}26,3,4,5,8,7,6,5,1,2,3,4,7,6,5,4,
{16}2x-6[8:1],,6,,2,,8x-4[8:1],,4,,8,,1bx,,,,
{16}26,3,4,5,8,7,6,5,1,2,5,6,2,3,6,7,
{16}4x-1[8:1],,1,,4,,5x-8[8:1],,8,,5,,3bx,,,,
{16}26,,7,1,4,,3,5,4,,6,2,4,,17,,
{16}2xq6[8:1]/6x,,2,,2x/8x^3[8:1],,8,,8x/5xw1[8:1],,5,,5bx,,,,
{16}2,1,3,8,4,7,5,6,3,4,2,5,1,6,8,7,
{24}1bx,2x,3x,4xh[8:2],,,,,,2bx,3x,4x,5x^8b[8:1],,,,,,1bx/A5f,2bx,3bx,4bx,,,
{16}2,7,1,8,3,6,2,7,4,5,3,6,2,7,1,8,
{48}E2,E8,E3,E7,E4,E6,
