&title=しろねこさん
&artist=RYU* feat.moimoi
&first=-1.14
&des=Let me see who else isn't playing Long Sword.
&lv_5=13
&inote_5=(130)
{16},,,,,,,,,,,,,,,6^7v2^3[64:20],,,,,,,,
{256},,,,,,,,,,,,,,E5f,,
{8},,,,
{4}7-5[8:1]/4-2[8:1],,7-5[8:1]/4-2[8:1],,4-2[8:1],4z8[4:1],,,2-4[8:1]/5-7[8:1],,2-4[8:1]/5-7[8:1],,1>5[4:1],5s1[4:1],E7f,,6-8[8:1]/4-2[8:1],,3-1[8:1]/5-7[8:1],,4qq2[8:1],
{8}4<8[8:1],,3,1x,1x,,
{4}2-6[8:1]/8-4[8:1],,
{32}A1,A2,A3,A4,A5,A6,A7,A8,A1f,,,,6x-3[8:3]/2x-7[8:3],,,,,,,,,,,,,,,,,,,,,,,,,,,,A6/E7/B7/C1/B2/E3/A3f,
,,,,,,,
{16}7^5[8:1],,,,2^4[8:1],,,,8-5[8:1],,,,3x,,,,4-1-7[4:1],,,,7>4[4:1],,,,6,,,,5-2[8:1],,,,5-7[8:1]/4-7[8:1],,,,4>5[4:1]/5p4[4:1],
,,,45,,,,,,,,2-4-1-5[3:1],,,,5,,,,A8f,,,,,,,,8-6-4[8:1],,,,2-6[8:1],,,,7-5[8:1],,,,3x,,,,2>7[4:1],,,,7<2[4:1],,,,1,,8x,,8x,,,,8p4[8:1]/4p8[8:1],,,,8^3[8:1]/4^7[8:1],,,,,,,,84,,C3f/B2/B6,,,,,,,,,,A6/A5/E6/B6/B5,,B3/A3/D3/E3,,E8/B7/B8f/E1/B1,,,
,
{8}1,1h[8:1],2,2h[8:1],3,3h[8:1],4x^7[8:1],,4^1[8:1],,4z8[4:1],,,,,,
{8}8,8h[8:1],7,7h[8:1],6,6h[8:1],5xv2[12:1],,5<4[4:1],,,,C1f,,,,3,2,1,8,7,6,5x^6-8[8:1],,5-3^2[8:1],,5-7-3-1[16:5],,,4x,4x,,6,7,8,1,2,3,4x^6-2[6:1],,4,3,4w8[8:1],,4,,Cf/B7/B6/B1/B2,,
{4}4h[8:1],3h[8:1]/5h[8:1],2h[8:1]/6h[8:1],C1/7x>3[4:1],3<7[4:1],7>3[4:1],3,E6/B5/B6,5h[8:1],6h[8:1]/4h[8:1],7h[8:1]/3h[8:1],C1/8x<4[4:1],4>8[4:1],8p7[3:1],Cf,,2q7[4:1],7p1[4:1],1,5x,6^3[4:1],3-7[6:1],
{8}B2/B1,1x,1x,,43,2,65,7,81,2p8^7-5-3-1[8:6],4x/3x,A2f,,,,,,,E8f/A8/A7/E1/E7,,6h[4:6]x/2^4[8:1],,,,2^8[8:1],,,,2-5[8:1],,2-7-5-3-8[3:1],,,,,,1h[2:3]x/7^5[8:1],
,,,2^4[8:1],,,,7-3[8:1],,7^8-2^3^4^5^6[3:1],,A7f,,,,5x/1-3^4[8:1],,5,,5x/1-7^6[8:1],,5,,
4qq2[8:1],,4<8[8:1],,,1x,1x,,3-5[8:1],,7-1[8:1]/3,,2-6[8:1]/7,,4w8[8:1]/2,,B4/E4/E5f,,,,,,A6/E7/B7/C1/B2/E3/A3f,,
{16}35,,2,,64,,7,,8^6[8:1]/2^4[8:1],1,,1,,,,,7^4[8:1],,,,8v3[8:1],,,,7^4[8:1],,,,2,,,,12,,3,,12,,8,,4-2[8:1]/6-8[8:1],5,,5,,,,,2^5[8:1],,,,1<4-8[3:1],,,,E3f,,,,,,,,56,,7,,46,,2,,3-8[8:1]/5-8[8:1],4,,4,,,,,7-5>2[4:1],,,,2-4<7[4:1],,,,7,,1x,,1x,,,,18,,7,,18,,2,,34,,5q7-1-3-6[8:6],,46,,A5f,,,,,,,,,,,,,,E4f/A4/A3/E5/E3,,,,
{8}24,1,8-5[8:1]/7,6,8-2[8:1],,,,4,3,1-4[8:1]/2,3,1^7[8:1],,,,56,7,5v8[8:1]/6,4,5v2[8:1],,,,8-6[8:1]/1-6[8:1],,8>6[3:1]/1,,E3f,,,,78,6,3-1[8:1]/5-1[8:1],4,5-7[8:1]/3-7[8:1],,,,1,2,4^2[8:1]/6p2[8:1],5,6^8[8:1]/4q8[8:1],,,,2,1,8/7-3[8:1],6,7/8-4[8:1],,8>6[3:1],,,,,,
{24}D6,A5,D5,A4,D4,A3,D3f,,,,,,
{8}7qq5[4:1],,,,3qq1[4:1],,,,4pp8[2:1],,3-8[4:1],,,,,,8z4[4:1],,,,2z6[4:1],,,,5-7[8:1]*-3[8:1],,5-1[8:1],,A5f,,,,4/6h[8:1],,5/3h[8:1],,6/4h[8:1],,3x>6<3[4:2]/6x,,5,,4,,C1,8x,8x,,2h[8:1]/8h[8:1],,3h[8:1]/1h[8:1],,4h[8:1]/2h[8:1],,5h[8:1]x/3h[8:1]x,,4-8[4:1],,,,,,E5f,,
{4}B1,B2,B3,B4,B8,B7,B6,B5/E3,E2,E1,E8,E7,E6,E5,
{8}E4f,B2,A1,,
{4}5/B3,5/B4,6/E8,6/B7,4/B6,3/B5,
{8}2/B8,1x,B2/1x,,7-5[8:1]/2,8,2,1,
{32}2,3,4,5,6,7,8,1,2x-7[8:4]/6x-3[8:4],,,,C1f,,,,,,,,,,,,,,,,,,,,,,,,,,,,A6/E7/B7/C1/B2/E3/A3f,,,,,,,,
{16},,6,5,,3,4,,1-5[8:1]/8z4[8:1],,27,,C1f/1/8,,,,
{16}7^5[8:1]b/3,,8,,7/3-8[8:1]b,,2,,6-1[8:1]b/3-5[8:1]b,5,,5,,,,,8<3[4:1]b,,,,3-6-8[4:1]b,,,,8,,,,3,,,,3^1[8:1]b/7,,4,,3/7-2[8:1]b,,6,,7^4[8:1]b/3^8[8:1]b,4,,4,,,,,5<1[4:1]b,,,,1p7[3:1]b,,,,C1f,,,,,,,,2^4[8:1]b/6,,1,,2/6^1[8:1]b,,7,,3-8[8:1]b/6-3[8:1]b,4,,4,,,,,7-5-2[4:1]b,,,,2-4-7[4:1]b,,,,7,,1x,,1x,,,,56,,8,,34,,1,,28,,7-3[8:1]b,,5x/6x,,A7f/E8/E7/B7,,,,2,12,,7,78,,5-1[8:1]/4-8[8:1]b,,36,,4/5/C1f,,,,
{8}A7/D8/A2/D2,,36,,B7/B8/B1/B2,,3/6x,,E8/A8/E2/B2,,36,,E8/A8/E2/B2,,46,,B6/B7/E1/B1,,35,,B8/E1/B2/B3,,4x/6,,D8/E8/A8/D2/E2/A1,,45,,D8/E8/A8/D2/E2/A1f,,35,,
7-4[8:1]b/B1/B2/E2/E3,,37,,2-5[8:1]b/B8/B7/E8/E7,,6/2x,,8^5[8:1]b/E2/B2/B1/A1/A2/D2,,38,,E8/B7/B8/A8/A7/D8/1^4[8:1]b,6x,1/6x,,B2/B3/E3/B1/B4/7^4[8:1]b,7,1/7,,B8/B5/B7/B6/E7/2^5[8:1]b,2,8/2x,B8f,,
{16}56,57,,34,24,,1p4[12:1]/8q5[12:1],,36,,1b/8b/A5/A4/E5f/B5/B4,,
