&title=Designant.
&artist=Designant
&first=1.2
&des=cosmos31415926
&lv_5=14+
&inote_5=(200)
{1}2h[4:7]/7h[4:7],,3h[4:7]/6h[4:7],,
{1}1h[4:7]/5h[4:7],,{8}8h[4:1]/4h[4:1],,,,,1h[4:1]/5h[4:1],,,{16}1,5,1,5,{8}1,8>3[8:1]/4<7[8:1],,,,,
{8}25,,35,,5,4,5,,58,1,25,3,5,,5,,
{8}47,,46,,4,5,4,,46,,47,8,14,8,47,6,
{8}2-5[8:1]/7-4[8:1],,2b/7b,,78,18,12,,{16}3,4,2,5,34,,6,5,7,4,56,,{8}18,27,
{4}6/3-5[8:1],3/7-4[8:1],7/2-5[8:1],{16}2,,7,8,{1}1bw5[2:1],
{8}45,,45,3,45,,45,,45,,{16}45,3,2,,45,6,7,,{8}45,,
{8}81,,81,7,81,,81,,81,,{16}81,7,6,,81,2,3,,{8}81,,
{16}1h[100:1],7,5h[100:1],3,5h[100:1],7,3h[100:1],5,1h[100:1],,28,,3h[8:1]/7h[8:1],,,,
{16}8h[100:1],2,4h[100:1],6,4h[100:1],2,6h[100:1],4,8h[100:1],,71,,6h[8:1]/2h[8:1],,,,
{16}3,7,2,6,1,5,8,4,{32}37,48,15,26,37,48,15,26,7,8,1,2,3,4,5,6,
{4}7<7[2:1]/3>3[2:1],,,,
{8}2h[4:1]/6h[4:1],,,{24}5h[8:1]/1,2,3,4,,,5h[8:1]/1,8,7,6,,,5h[8:1]/1,2,3,4,,,5h[8:1]/1,8,7,6,,,,,,{4}4-8[8:1],{24}8,7,6,5,,,
{8}1>4[8:1]/5<8[8:1],,15,,,{24}1h[8:1]/5,4,3,2,,,1h[8:1]/5,6,7,8,,,15,4,3,{8}28,7,6<1[8:1]*>3[8:1],,,,
{32}2,13,48,57,{8}6h[4:1],,{24}2,3,4,5h[4:1],,,1,2,3,4h[8:1],,,7,6,5,4h[8:1],,,8,7,6,{8}5h[4:1]/3,2,1-4[8:1]*-6[8:1],,,,
{8}1-7[8:1]/5,5,1-3[8:1]/5,5,15,6,7,8-2[8:1]/4,4,8-6[8:1]/4,4,48,4-8[8:1],,,,
{8}7h[4:1]/3h[4:1],,,{24}37,26,15,4h[8:1]/8h[8:1],,,,15,26,3h[8:1]/7h[8:1],,,,26,15,4h[8:1]/8h[8:1],,,,15,26,3h[8:1]/7h[8:1],,,,,,{8}5-1[8:1],2,3,4,
{8}8<5[8:1]/4>1[8:1],,84,,,{24}15,26,37,4h[8:1]/8h[8:1],,,,37,26,1h[8:1]/5h[8:1],,,,26,37,{8}48,2,3>8[8:1]*<6[8:1],,,,
{32}7,86,51,42,{8}3h[4:1],,{24}7,6,5,4h[4:1],,,8,7,6,5h[8:1],,,2,3,4,5h[8:1],,,1,2,3,{8}4h[4:1]/6,7,8-5[8:1]*-3[8:1],,,,
{8}2b/6b,,37,37,48,48,15,15,2<3[2:1]/6>7[2:1],,,,,,,,
{8}1V37[4:1],4-6[8:1],1,4,,2-6[16:1],28,,8V62[4:1],5-3[8:1],8,5,,7-3[16:1],71,,
{8}1V37[4:1],4-6[8:1],1,4,,2-6[16:1],28,,8V62[4:1],5-3[8:1],8,5,,7-4[16:1],7b/1b,,
{8}1>4[16:3],3<6[16:3],5<8[16:3],7>2[16:3],,4-7[16:1],4,,8<5[16:3],6>3[16:3],4>1[16:3],2<7[16:3],,5-2[16:1],5,,
{8}1>4[16:3],3<6[16:3],5<8[16:3],7>2[16:3],,4-7[16:1],4,,8<5[16:3],6>3[16:3],4>1[16:3],2<7[16:3],,5,5,,
{8}1>4[8:1]/8,2,1/5<8[8:1],6,5/2q6[4:1],3,2/6q2[4:1],,2>5[8:1],1,8-4[8:1],7,8<5[8:1]*>3[8:1],,8b,,
{8}8<5[8:1]/1,7,8/4>1[8:1],3,4/7p3[4:1],6,7/3p7[4:1],,7<4[8:1],8,1-5[8:1],2,1>3[8:1]*<6[8:1],,1b,,
{8}4>1[8:1]/5,3,4/8<5[8:1],7,8/3p7[4:1],2,3/7p3[4:1],,3>8[8:1],4,5-1[8:1],6,5<8[8:1]*>2[8:1],,5b,,
{8}1-5[8:1],8-6[8:1],1,8,4-2[8:1],5-1[8:1],4,5,,,{16}7,2,6,3,5,4,4,5,3,6,2,7,
{8}1b,,7,8-3[8:1],7,8qq5[8:5],,8,,,,4,4-1[8:1],,,,
{8}8b,,2,1-6[8:1],2,1pp4[8:5],,1,,,,5,5-8[8:1],,,,
{8}5w1[8:1],,5,,4-8[8:1],35,4,,4,3/5-2[8:1],6,5/7V14[4:1],,7,,,
{16}2,1,3,8,4,7,5,6,8,7,1,6,2,5,3,4,1,2,3,4,8,7,6,5,4,3,2,1,4b/8b,,,,
{12}1b/8b,,,,,6,2b,4,3,5,4,6,5b,,,,,3,7b,5,6,4,5,3,4b,,,,,5,1b,7,3,5,7,3,1b,,,,,4,8b,2,6,4,2,6,
(180)8b,,,3,4,2,6,5,7,3,4,2,(170)6b,5,7,3,4,2,6,5,7,3,4,2,(150)6b,5,7,3,4,2,(130)6b,5,7,3,4,2,
(100)7b,6,5,2,3,4,5b,6,7,4,3,2,
(90){4}1h[64:85]/8h[64:85],(95),(100),(105),(110),(115),(120),(130)18,
(140)
{4}27,{16}6,5,5,5,7,5,5,5,8,5,5,5,1-3[8:1],5,5,5,1-7[8:1],5,5,5,1-4[8:1],5,5,5,1-6[8:1],5,5,5,
{4}1b,{16}3,4,4,4,2,4,4,4,1,4,4,4,8-6[8:1],4,4,4,8-2[8:1],4,4,4,8-5[8:1],4,4,4,8-3[8:1],4,4,4,
{4}8b,{16}7,8,8,8,6,8,8,8,5,8,8,8,4-2[8:1],8,8,8,4-6[8:1],8,8,8,4,8,8,8,4,8,8,8,
{16}1-4[16:1]/7-4[16:1],,,17,,,26,,8-5[16:1]/2-5[16:1],,,82,,,73,,
{4}1-5[8:1],1<6[8:1]*>4[8:1],1w5[8:1],1,
(150){4}2b/7b,{16}1,8,2,3,1,8,4,5,1,8,6,7,{32}2,,5,,2,3,4,,7,,4,,7,6,5,,2,,5,,2,3,4,,7,,4,,7,6,5,,
(155){4}1b,{16}8,1,7,6,8,1,5,4,8,1,3,2,{32}7,,4,,7,6,5,,2,,5,,2,3,4,,7,,4,,7,6,5,,2,,5,,2,3,4,,
(160){4}8b,{16}1,8,2,3,1,8,4,5,1,8,6,7,{32}2,,5,,3,4,3,,7,,4,,6,5,6,,2,,5,,3,4,3,,7,,4,,6,5,6,,
(165){16}7V53[16:3]/8,78,,16,,,,,2V46[16:3]/1,21,,83,,,,,
{4}8-4[8:1],8<5[8:1]*>3[8:1],8w4[8:1],8,
(170){4}2b/7b,{16}1,2,3,4,(175)15,6,7,8,15,2,3,4,
(180)8,7,6,5,7,6,5,4,(185)6,5,4,3,5,4,3,2,
(190){4}1b/5b,{16}8,7,6,5,(195)84,3,2,1,84,7,6,5,
(200)1,2,3,4,2,3,4,5,(205)3,4,5,6,4,5,6,7,
(210){4}4b/8b,{16}1,8,2,7,(215)1,8,3,6,1,8,2,7,
(220)1,2,8,7,2,3,7,6,(225)2,3,7,6,3,4,6,5,
(230){4}1b,{16}8,1,7,2,(235)8,1,6,3,8,1,7,2,
(240)8,7,1,2,7,6,2,3,(245)7,6,2,3,6,5,2,1,
(250){8}68,,16,2,(255)6,3,{16}5,4,5,,
(260){8}31,,83,7,(265)3,6,{16}4,5,4,,
(270){8}75,,47,3,(275)7,2,{16}8,1,8,,
(280){8}24,,52,6,(285)2,7,{16}1,8,1,,
(290)18,,,2,(295),,3,,(300)18,,,7,(305),,6,,(310)45,,,3,(315),,2,,(320)45,,,6,(325),,7,,
{8}(330)3,7,(335)2,6,(340)1,5,(345)8,4,
(350){12}37,48,15,26,37,48,5,6,7,8,1,2,{16}3/8h[2:1],4,5,6,7,,1,2,3,7,6,5,4,3,2,1,
{1}8h[2:11]/4h[2:11],,(400),,,,
(100){4},,
{8}18,2,(110)3,4,(120)56,7,(130){16}8,1,,3,(140){8}48,(150)37,(160)26,(170)15,{16}(180)48,15,(185)26,37,(190)48,,(195),,
(200){8}56,78,12,34,{16}2,1,3-5[8:1],8,2,1,3,,8,7,6,,18,,6,5,,3,4,,1,6,2,5,
{8}43,21,87,65,{16}7,8,6-4[8:1],1,7,8,6,,1,2,3,,81,,3,4,,6,5,,8,3,7,4,
{8}6-1[8:1],5,46,3,{16}3,4,3,4,25,,34,,{8}3-8[8:1],4,53,6,{16}6,5,6,5,74,,65,,
{16}18,,36,,4,5,,27,18,,36,,5,4,,27,18,,37,,48,,15,,26,15,48,37,2b/6b,,,,
{8}45,36,27,18,{16}1,8,2-5[8:1],7,1,8,2,,8,7,6,,46,,5,3h[8:1],,4,2h[8:1],,1,8,7,6,
{8}45,36,27,18,{16}8,1,7-4[8:1],2,8,1,7,,1,2,3,,53,,4,6h[8:1],,5,7h[8:1],,8,1,2,3,
{16}45,,6,,57,,6,5,6,5,6,,47,,56,,45,,3,,24,,3,4,3,4,3,,25,,34,,
{4}6h[4:1]/2,{24}8,6,1,5,2,4,{4}3h[4:1],{24}1,3,8,4,7,5,
{8}6h[8:1],{24}8,6,1,5,2,4,{8}3h[8:1],{24}8,1,8,1,8,1,{4}8,
{8}34,12,78,56,47,38,{16}1/2-6[8:1],1h[8:1]/2h[8:1],,,{8}8,8,{16}7-4[8:1]/8,7h[8:1]/8h[8:1],,,{8}1,1,{16}12,1h[8:1]/2h[8:1],,,
{16}48,37,26,15,4/8h[8:1],,4,15,26,37,4/8h[8:1],,4,37,26,15,4h[8:1]/8,,8,15,26,37,4h[8:1]/8,,8,37,26,15,4b/8b,,,,
{8}65,87,21,43,52,61,{16}8/7-3[8:1],8h[8:1]/7h[8:1],,,{8}1,1,{16}2-5[8:1]/1,2h[8:1]/1h[8:1],,,{8}8,8,{16}87,8h[8:1]/7h[8:1],,,
{16}1,5,2,4,3,,8,4,7,5,6,,1,8,1,8,{24}2,4,2,4,,,7,5,7,5,,,
{32}15,26,37,48,1,2,3,4,5w1[8:1],46,37,28,1,8,7,6,
{8}5b,,,{16}37,37,37,,,56,,,34,,{4}1-5[8:1]/8-4[8:1],(150)18,
{1}3h[2:3]/6h[2:3],,,E
