&title=Einherjar Joker
&artist=DJ Genki vs. Gram
&first=0
&des=
&des_5=~REQUIEM~ ANtares
&lv_5=14+
&inote_5=(222){4},,,,,,,,{32}6h[1:2]/B3,
B4,{16},,,,,,,,,,,,,,,{1}2,
3h[1:2],
6,
{12}7h[1:2],B3,B4,B5,{3},,{2}3,
2,
{24}1h[2:3],B7,,B6,,B5,,B4,{3},,{2}5,
{8}5x,6x,7x,8x,
{1}1xh[2:1]/4bx>5[2:7],
{2}8,7,
B7/E7/B6,B2/B3/E3,
{1}C,
6-2<4[8:13],
B2/B3/E3,
1-4<6[8:7],
{2},{16}4,5,4,5,{4}4,
{8}5/3,5/3,,7/4,{4}4/7,{8}2/5,2/5,
{16}2,3,4,5,7,6,5,4,1,2,3,4,5,6,7,8,
{8}1x/7x,7x/1x,,8/3,{4}8/3,{8}6/1,6/1,
{16}6,5,4,3,1,2,3,4,7,6,5,4,3,2,1,8,
{8}7x/4x,7x/4x,,6/2,{4}6/2,{8}5/1,5/1,
{16}4,3,2,1,4,3,2,1,8,7,6,5,8,7,6,5,
{8}4x/8x,4x/8x,,5/1,{4}5/1,{8}6/2,6/2,
,7/2,{4}7/2,{8}8/1,8/1,{24}2x,3x,4x,8x,7x,6x,
{4}1h[8:1]/5bxpp3[2:3],1h[8:1],1h[8:1],1h[8:1],
2h[8:1],2h[8:1],2h[8:1],2h[8:1],
6h[8:1]/2p8[2:3],6h[8:1],6h[8:1],6h[8:1],
5h[8:1],5h[8:1],5h[8:1],5h[8:1],
{16}8x,7x,8x,7x,8x,7x,8x,7x,8x,7x,8x,7x,{4}1bx,
{16}3x,4x,3x,4x,3x,4x,3x,4x,3x,4x,3x,4x,{4}2bx,
{16}1x,2x,3x,4x,{4}5bx/6x,{16}8x,7x,6x,5x,{4}4bx/3x,
{8}2bx,{16}6,5,{8}7bx,{16}3,4,{8}2bx,{16}7x,6x,{8}5bx,{16}1x,2x,
{1}4bxs8<4[4:5]/3bxz7>3[4:5],
{4},,,Cf,
{8}6/3,3,3,6,6,6,4,4,
4,5,5,5,3,3,{4}3/5,
{8}6/4,6,6,3,3,3,5,5,
5,4,4,4,6,6,{4}6/4,
{8}5/2,2,2,4,4,4,5,5,
5,7,7,7,2,2,{4}2/7,
{8}8/6,6,6,8,8,8,1,1,
{16}1/3,{8},{16}8/2,{8},7/2,8-4[8:1]/1-5[8:1],8/1,{4}8/1,
{8}7-4[8:1],7,2-5[8:1],2,8-4[8:1],8,1-5[8:1],1,
7-3[8:1],7,2-6[8:1],2,8-4[8:1],8,{4}1,
{8}2q6[8:1],2,7-4[8:1],7,3-8[8:1],3,5q1[8:1],5,
2-7[8:1],2,6-3[8:1],6,1-4[8:1],1,{4}8,
{8}8-6[8:1],8,4-8[8:1],4,5-1[8:1],5,3-1[8:1],3,
7-5[8:1],7,8-4[8:1],8,7-3[8:1],7,1-5>7[4:7],1,
{1}1xh[4:3],
Cfh[4:3],
{16}6,5,6,5,{4}7h[8:1],{16}3,4,3,4,{4}2h[8:1],
{16}7,1,{8}7,{16}2,8,{8}2,8/1,8/1,{4}7/2,
{16}2,4,2,4,{4}2h[8:1],{16}8,1,8,1,{4}8h[8:1],
{16}4,5,{8}3,{16}5,4,{8}6,2/1,2/1,{4}8/3,
{16}7,8,7,8,{8}6,6,{16}4,5,4,5,{8}3,3,
{16}6,4,{8}6,{16}2,8,{8}2,1/7,1/7,{4}2/8,
{16}5,4,5,4,{8}6,6,{16}3,4,3,4,{8}2,2,
{16}8,1,{8}7,{16}1,8,{8}2,1/8-6[8:1],1/8,{4},{16}4,
5,4,5,4,7,4,7,3,6,3,6,3,1,3,1,
2,8,2,7,2,6,2,5,{4}1h[4:1],8,
{16}8,1,8,1,8,3,8,3,7,2,7,2,7,5,7,5,
6,4,6,3,6,2,6,3,{8}5,4/5,{4}5/4,
{8}3/4,3,3/4,3,{16}3,4,3,4,{4}2b,
{8}6/5,6,6/5,6,{16}6,5,6,5,{4}7b,
{16}3,5,3,5,{4}1b,{16}6,4,6,4,{4}8b,
{16}4,6,4,6,3,7,3,7,2,8,2,8,1x-5b[8:1],1x,1x,1x,
1bx-7-5-3-1[2:15],Cf,{8},,,,,,,{1}1h[2:1],
2h[2:1],
3h[2:1],
4h[2:1],
5h[2:1],
6h[2:1],
7h[2:1],
{12}2x,3,4,5,6,7,2x,3,4,5,6,7,
2x,3,4,5,6,7,2x,3,4,5,6,7,
3x,2,1,8,7,6,3x,2,1,8,7,6,
3x,2,1,8,7,6,3x,2,1,8,7,6,
2x,3,4,8x,7,6,2x,3,4,8x,7,6,
1x,2,3,7x,6,5,1x,2,3,7x,6,5,
2x,3,4,8x,7,6,1x,2,3,7x,6,5,
2x,3,4,8x,7,6,{16}1x,2x,3x,4x,{32}5xq1b[8:1]*p1b[8:1],6x,7x,8x,1x,2x,3x,4x,
{1}5bxpp1[2:3]*qq1[2:3],
,{16}B4,
B3,B2,B1,{8},{16}B6,B7,B8,B1,{8},{16}4x,3x,2x,1xh[16:3],
{8},{16}5x,6x,7x,8x,1x,2x,3x,4x,5x,6x,{4}7bx/2bx,
{16}1,8,1,8,2,7,2,7,1-5[8:1],{8},{16}8,{8}1,7,
{16}7-4[8:1],{8},{16}8,{8}7,2,{16}2-6[8:1],{8},{16}1,{8}2,8,
{16}7,8,7,8,{8}6h[8:1],{16}2,1,2,1,{8}3h[8:1],{16}8,1,8,1,
8,7,6,5,2,3,4,5,1,2,3,4,5,6,7,8,
1h[8:1]/3h[8:1],{8},{16}8h[8:1]/2h[8:1],{8},7/1,{16}1,8,{8}1,{16}8,7,6,5,
4h[8:1]/2h[8:1],{8},{16}5h[8:1]/3h[8:1],{8},6/4,{16}4,3,2,1,5,6,7,8,
1q5[8:1],{8},{16}8,{8}1,7,{16}7p3[8:1],{8},{16}8,{8}7,1,
{16}1,2,3,4,5/1,8,7,6,5/1,2,3,4,{4}1b/5,
{8}8/2,8/2,{4}2/8xV63[4:1],3x-5-8b[4:1],8x<3[4:1],
3x-6-8b[4:1],8x-5-3[4:1],{2}3x<8b[4:1],
{16}1,2,3,4,{8}5,{16}8,7,6,5,{8}4,{16}1,2,3,4,
6/5,7,8,1,4,3,2,1,7/8,6,5,4,2,3,4,5,
8h[8:1]/6h[8:1],{8},{16}5h[8:1]/7h[8:1],{8},6/4,{16}3,5,3,5,4,6,4,6,
7h[8:1]/4h[8:1],{8},{16}6h[8:1]/3h[8:1],{8},5/2,{16}2,3,4,5,6,7,8,1,
{8}7/2,7,2,2,{16}7/1,6,{8}5,{16}8/2,3,{8}4,
{16}1,7,1,7,1,7,1,7,{32}1,2,3,4,5,6,7,8,{4}1b,
{24}8b/1,7,6,5,{12},{24}1/2b,3,4,5,{12},{24}7b/8,6,5,4,{12},{24}1/2b,3,4,5,{12},{32}8b,
7,6,5,4,3,2,1,8,7,6,5,4,3,2,1,8,7,6,5,4,3,2,1,{4}8b-4[8:1],
{8}1,2b<7[8:1],,4,{4}5b>2[8:1],{8}7,8b<5[8:1],
,2,{4}3b-8[8:1],{8}7/3,6,5,4,
8,7b>2[8:1],,5,{4}4b<7[8:1],{8}2,1b>4[8:1],
,7,{4}6b-1[8:1],{8}2/6,3,{4}4b,
{8}6/1,{16}7,8,{8}7,6/1,{16}7,8,{8}7,6/1,{16}7,8,
{8}7,6/2,{16}8,1,{8}8,{16}7,2,7,2,{4}7h[8:1],
{8}3/8,{16}2,1,{8}2,8/3,{16}2,1,{8}2,8/3,{16}2,1,
{8}2,7/3,{16}1,8,{8}1,{16}2,7,3,6,{4}4b,
{16}6,5,7,5,{8}7,{16}3,4,2,4,{8}2,{16}6,5,7,5,
{8}7,{16}3,4,2,4,{8}2,{16}3,4,2,5,{4}1h[8:1],
{16}6,5,6,7,{8}6bh[8:1],{16}3,4,3,2,{8}3bh[8:1],{16}7,8,7,6,
{8}7bh[8:1],{16}2,1,2,3,{8}2bh[8:1],{16}6,5,7,4,{4}8bh[8:1],
{16}3,4,3,5,3,4,3,5,3,4,3,5,{4}1b,
{16}6,5,6,4,6,5,6,4,6,5,6,4,{4}8b,
{24}2,4,2,4,2,4,{4}2b,{24}7,5,7,5,7,5,{4}7b,
{16}3,7,3,7,2,6,2,6,{24}1x,5x,1x,5x,1x,5x,{32}1x,2,3,4,5x,6,7,8,
1bx,7x<3>8<5pp8[32:119]/2x>1>4qq1[32:119],3x/6x,4x/5x,{8}D5f,
E
