&title=はたらけ!ニート
&artist=亞北ネル; 弱音ハク; オワタP
&first=0
&des=战吼:对一个随从造成1点伤害,并使其获得+2攻击力。
&lv_5=13
&inote_1=(180)
{4},,,,
{4},,,,
{4}1>4[8:1],8,1<6[8:1],2,
{4}1,5,3/7,1/5,
{4}8<5[8:1],1,8>3[8:1],7,
{4}8,4,6/2,8/4,
{8}2>5[8:1],1,1,,2<7[8:1],3,3,,
{8}2/6,,2/6,1/5,8/4,,7/3,,
{8}6>3[8:1],8,8,,6<1[8:1],4,4,,
{8}7/3,,7/3,8/4,1/5,,2/6,,
{16}4,,,,6/8,,7,,3>8[8:1],,4,,5,,,,
{8}7h[4:1],,6,8,1-3[8:1]/4,,1,5,
{8}5-7[8:1],,5,8,8-4[8:1],,8,,
{8}8v7[8:1]/4v3[8:1],,8>2[8:1]/4<6[8:1],,,,,,
{16}5,,,,3/1,,2,,6<1[8:1],,5,,4,,,,
{8}2h[4:1],,3,1,8-6[8:1]/5,,8,4,
{8}4-2[8:1],,4,1,1-5[8:1],,1,,
{8}1v2[8:1]/5v6[8:1],,1<7[8:1]/5>3[8:1],,,,{16}2,1,8,7,
{16}6,,,,3/5,,4,,8>6[8:2]/5,,7,,2,,,,
{8}1h[4:1],,7,6,5/8-2[8:1],,8,4,
{8}4-6[8:1],,4,1,1-5[8:1],,1,,
{8}5v6[8:1]/1v2[8:1],,5<8[8:1]/1>4[8:1],,,,{16}1,2,3,4,
{16}5,,,,6/4,,5,,1<3[8:2]/4,,2,,7,,,,
{8}8h[4:1],,2,3,4/1-7[8:1],,1,5,
{8}5-3[8:1],,5,8,8-4[8:1],,8,,
{8}4v3[8:1]/8v7[8:1],,4>1[8:1]/8<5[8:1],,,,{16}8,7,6,5,
{8}4-1[8:1],,,,5p1[8:1],,,,
{8}6p2[8:1],,,,8<5[8:1],,,,
{8}1-4[8:1],,,,8q4[8:1],,,,
{8}7q3[8:1],,,,5<8[8:1],,,,
{8}5>2[8:1]/1,,7,,1>4[8:1]/5,,7,,
{8}1<6[8:1]/5,,3,,8>2[24:2]/4<6[24:2],,,,
{8}2-7[8:1]/6-3[8:1],,2/6,,8-3[8:1]/4-7[8:1],,8/4,,
{8}8<5[8:1]/4>1[8:1],,8-4[8:1],,,,,3,
{8}4/2,2,6,4,5/3,5,2,7,
{8}5/3-5[8:1],3,7-1[8:1],7,4-1[8:1],,,7,
{8}6/8,6,2,4,5/3,3,7,1,
{8}2-4[8:1]/4,2,6-8[8:1],6,5-1[8:1],,,7,
{8}8/6,6,2,4,3/5,3,6,8,
{8}1-4[8:1]/7,1,5-8[8:1],5,2>4[24:2],,,6,
{8}7/5,7,2,4,5/3,3,6,2/7,
{8}1-5[8:1],1,6>3[8:1],6,2<7[8:1],,,,
{8}3/5,4,8,2,6/4,5,1,7,
{8}3-6[8:1]/5,3,7-2[8:1],7,4>1[8:1],,,7,
{8}6/4,5,1,7,3/5,4,8,2,
{8}1<6[8:1],1,4-7[8:1],4,8-3[8:1],,,,
{8}6/4,5,1,7,3/5,4,8,2,
{8}6-4[8:1]/4,6,8-3[8:1],8,7-5[8:1],,,1,
{8}2/4,3,7,1,6/4,5,1,7,
{8}8>3[8:1],8,5-2[8:1],5,1-6[8:1],,,,
{8}2-4[8:1],,2,,8-2[8:1],5,8,,
{8}6-8[8:1],,6,,4-6[8:1],1,4,2,
{8}2-8[8:1],,2,,6-4[8:1],1,6,8,
{8}7-3[8:1],,7,,8-2[8:1],5,8-4[8:1],6,
{8}8-2[8:1]*-6[8:1],,8,,4-6[8:1],8,4,1,
{8}1<6[8:1],3,1,2,3-5[8:1],8,3,1,
{8}2<7[8:1],3,2,4,5-3[8:1],8,5,7,
{8}6-4[8:1],7-1[8:1],6,7,3<6[8:1],2,3,8,
{16}1x,2x,3x,4x,5x,,,,8x,7x,6x,5x,4x,,,,
{16}1x,2x,3x,,8x,7x,6x,,3x,2x,1x,8x,7x,,,,
{16}3,,2/4,,6,,7/5,,8>5[24:5],,4,,2,,,,
{8}1h[4:1],,6,{16}3,4,{8}3-6[8:1],,3,7,
{8}8,1,2-5[8:1]/8,3,2/4,6,7/5,6,
{8}2>5[8:1],2,6<1[8:1],6,2,,{16}3,,3,,
{16}6,,7/5,,3,,2/4,,1<4[24:5],,5,,7,,,,
{8}8h[4:1],,3,{16}6,5,{8}6-3[8:1],,6,2,
{8}1,8,7-4[8:1]/1,6,7/5,3,2/4,3,
{8}7<4[8:1],7,3pp7[8:3]*qq7[8:3],3,,,{16},,,,
{16}2,,1/3,,7,,6/8,,4>7[24:5],,2,,8,,,,
{8}4h[4:1],,2,{16}8,7,{8}6-1[8:1],,6,4,
{8}3/8,2,1-6[8:1]/4,3,1,4,5/3,6,
{8}7-4[8:1]/5,3,2/7,1,8-3[8:1],8,{16},,,,
{16}7,,8/6,,2,,3/1,,5<2[24:5],,7,,1,,,,
{8}5h[4:1],,7,{16}1,2,{8}3-8[8:1],,3,5,
{8}6/1,7,8-3[8:1]/5,6,8,5,4/6,3,
{8}2-5[8:1]/4,6,7/2,8,1,,{16}5pp1[8:6]/4qq8[8:6],,,,
{8}4bx/5bx,,,,,,,,
{8},,,,,,,,
{8}1>4[8:1]/5<8[8:1],,,,1-5[8:1],,,,
{8}8>3[8:1]/4<7[8:1],,,,8-4[8:1],,,,
{8}3<6[8:1]/7,1,1,,3>8[8:1],5,5,,
{8}8V27[8:1],5,5,,8-6[8:1]/5-2[8:1],,,,
{8}6>3[8:1]/2,8,8,,6<1[8:1],4,4,,
{8}1V72[8:1],4,4,,1-6[8:1]/4V25[8:1],,,,
{8}3,,4,,5,,6,,
{8}7<3[4:4],,,,,,,,
{8}2,,1,,8,,7,,
{8}6>2[4:4],,,,,,,,
{8}1,,8,,7,,6,,
{8}5>1[4:4],,,,,,,,
{8}8,,7,,6,,5,,
{8}4,4,5,5,{16}3,4,3,4,2,,,,
{16}6,,3,4,2,,6,5,8>6[4:1],,2,,4,,,,
{16}1,,,3,4,,8,,6/5>2[8:1],,,,5,,7,,
{8}6-8[8:1],5,1-5[8:1],2,8-2[8:1],7,4-8[8:1],3,
{8}7-5[8:1],6,1-5[8:1],2,7,8,1,{16},,
{16}3,,6,5,7,,3,4,1<3[4:1],,7,,5,,,,
{16}8,,,6,5,,1,,3/4<7[8:1],,,,4,,2,,
{8}3-1[8:1],4,8-4[8:1],7,1-7[8:1],2,5-1[8:1],6,
{8}2-4[8:1],3,8-4[8:1],7,2,1,8,{16},,
{16}1/5,,7,8,6,,3,4,1<3[4:1],,7,,5,,,,
{16}8,,,3,4,,7/8,6/1,2-6[8:1]/5,,,,2,,7,,
{8}8-2[8:1],2,3-7[8:1],4,6-4[8:1],5,2,1,
{8}8-2[8:1],8-6[8:1],8-3[8:1],8-5[8:1],8-4[8:1],,,,
{16}8/4,,2,1,3,,6,5,8>6[4:1],,2,,4,,,,
{16}1,,,6,5,,2/1,3/8,7-3[8:1]/4,,,,7,,2,,
{8}1-7[8:1],7,6-2[8:1],5,3-5[8:1],4,7,8,
{8}1-6[8:1],1,1,,1<6[8:1]/8>3[8:1],,1s5[8:1]/8z4[8:1],,
{8}1b>8[4:3]/8b<1[4:3],,,,,,,,
{8},,,,,,,,
{8}1-4[8:1]/5-8[8:1],,,,8-4[8:1],,,,
{8}2/4<7[8:1],,2<7[8:1],,7v2[8:1],,,,
{8}7<4[8:1],,,,7>2[8:1],,,,
{8}7v2[8:1],,1-7[8:1],,4-8[8:1],,,,
{8}7-4[8:1]/2-8[8:1],,,,1-3[8:1]/4-7[8:1],,,,
{16}1x,1x,1x,1x,1x,1x,1x,1x,1x,,,,,,,,
E
&inote_2=(180)
{4},,,,
{4},,,,
{4}1>4[8:1],8,1<6[8:1],2,
{4}1,5,3/7,1/5,
{4}8<5[8:1],1,8>3[8:1],7,
{4}8,4,6/2,8/4,
{8}2>5[8:1],1,1,,2<7[8:1],3,3,,
{8}2/6,,2/6,1/5,8/4,,7/3,,
{8}6>3[8:1],8,8,,6<1[8:1],4,4,,
{8}7/3,,7/3,8/4,1/5,,2/6,,
{16}4,,,,6/8,,7,,3>8[8:1],,4,,5,,,,
{8}7h[4:1],,6,8,1-3[8:1]/4,,1,5,
{8}5-7[8:1],,5,8,8-4[8:1],,8,,
{8}8v7[8:1]/4v3[8:1],,8>2[8:1]/4<6[8:1],,,,,,
{16}5,,,,3/1,,2,,6<1[8:1],,5,,4,,,,
{8}2h[4:1],,3,1,8-6[8:1]/5,,8,4,
{8}4-2[8:1],,4,1,1-5[8:1],,1,,
{8}1v2[8:1]/5v6[8:1],,1<7[8:1]/5>3[8:1],,,,{16}2,1,8,7,
{16}6,,,,3/5,,4,,8>6[8:2]/5,,7,,2,,,,
{8}1h[4:1],,7,6,5/8-2[8:1],,8,4,
{8}4-6[8:1],,4,1,1-5[8:1],,1,,
{8}5v4[8:1]/1v8[8:1],,5<7[8:1]/1>3[8:1],,,,{16}8,1,2,3,
{16}4,,,,6/4,,5,,1<3[8:2]/4,,2,,7,,,,
{8}8h[4:1],,2,3,4/1-7[8:1],,1,5,
{8}5-3[8:1],,5,8,8-4[8:1],,8,,
{8}4v5[8:1]/8v1[8:1],,4>2[8:1]/8<6[8:1],,,,{16}1,8,7,6,
{8}5-1[8:1],,,,4-8[8:1],,,,
{8}5-2[8:1],,,,3-8[8:1],,,,
{8}6-1[8:1],,,,3-8[8:1],,,,
{8}5-2[8:1],,,,4-7[8:1],,,,
{8}5>2[8:1]/6p1[8:1],,,,4<7[8:1]/3q8[8:1],,,,
{8}2<7[8:1]/6q3[8:1],,,,5<8[8:1]/4>1[8:1],,,,
{8}2-5[8:1]/6-1[8:1],,,,1/5-1[8:1],,,,
{8}7v2[8:1],,2<4[4:1],,,,,3,
{8}4/2,3,7,5,6/4,5,2,4,
{8}5/3-5[8:1],3,7-1[8:1],7,4-1[8:1],,,7,
{8}6/8,7,3,5,4/6,5,8,6,
{8}7-5[8:1]/5,7,3-1[8:1],3,4-8[8:1],,,2,
{8}1/3,2,6,8,7/1,8,3,1,
{8}2-7[8:1]/8,2,6-3[8:1],6,8>3[8:1],,,6,
{8}7/5,6,2,4,5/3,4,5,2/6,
{8}1-5[8:1],1,6>3[8:1],6,2<7[8:1],,,,
{8}6/4,5,1,7,3/5,4,8,2,
{8}6-4[8:1]/4,6,8-3[8:1],8,7-5[8:1],,,1,
{8}2/4,3,7,1,5/3,4,8,6,
{8}1<6[8:1],1,4-7[8:1],4,8-3[8:1],,,,
{8}4/6,5,1,3,7/5,6,2,4,
{8}3-6[8:1]/5,3,7-2[8:1],7,5>2[8:1],,,6,
{8}1/7,8,4,2,6/8,7,3,1,
{8}8>3[8:1],8,5-2[8:1],5,1-6[8:1],,,,
{8}2-4[8:1],,2,,8-2[8:1],5,8,,
{8}6-8[8:1],,6,,4-6[8:1],1,4,2,
{8}2-8[8:1],,2,,6-4[8:1],1,6,8,
{8}7-3[8:1],,7,,8-2[8:1],5,8-4[8:1],6,
{8}8-2[8:1]*-6[8:1],,8,,4-6[8:1],8,4,1,
{8}1-7[8:1],3,1,2,3-5[8:1],8,3,1,
{8}2-8[8:1],3,2,4,5-3[8:1],8,5,7,
{8}6-4[8:1],7-1[8:1],6,7,3<6[8:1],2,3,8,
{16}1,2,3,4,5,,,,8,7,6,5,4,,,,
{16}1,2,3,,8,7,6,,3,2,1,8,7,,,,
{16}4,,5/3,,2,,7,,8>6[8:2],,3,,5,,,,
{8}1h[4:1],,7,{16}6,5,{8}4<7[8:1],,8,1,
{8}2>5[8:1],,1,8,7<4[8:1],,3,2,
{8}1v4[8:1],1,5,6,7v4[8:1],,2,1,
{16}5,,4/6,,7,,2,,1<3[8:2],,6,,4,,,,
{8}8h[4:1],,2,{16}3,4,{8}5>2[8:1],,1,8,
{8}7<4[8:1],,8,1,2>5[8:1],,6,7,
{8}8v5[8:1],8,4,3,2v5[8:1],,7,8,
{8}1,2,3,4,5,6,7,,
{8},,,,,,,,
{8},,,,,,,,
{8},,,,,,,,
{8},,,,,,,,
{8},,,,,,,,
{8},,,,,,,,
{8},,,,,,,,
{8},,,,,,,,
{8},,,,,,,,
{8},,,,,,,,
{8},,,,,,,,
{8},,,,,,,,
{8},,,,,,,,
{8},,,,,,,,
{8},,,,,,,,
{8},,,,,,,,
{8},,,,,,,,
{8},,,,,,,,
{8},,,,,,,,
{8},,,,,,,,
{8},,,,,,,,
{8},,,,,,,,
{8},,,,,,,,
{8},,,,,,,,
{8},,,,,,,,
{8},,,,,,,,
{8},,,,,,,,
{8},,,,,,,,
{8},,,,,,,,
{8},,,,,,,,
{8},,,,,,,,
{8},,,,,,,,
{8},,,,,,,,
{8},,,,,,,,
{8},,,,,,,,
{8},,,,,,,,
{8},,,,,,,,
{8},,,,,,,,
{8},,,,,,,,
{8},,,,,,,,
{8},,,,,,,,
{8},,,,,,,,
{8},,,,,,,,
{8},,,,,,,,
{8},,,,,,,,
{8},,,,,,,,
{8},,,,,,,,
E
&inote_3=(180)
{4},,,,
{4},,,,
{4}1>4[8:1],8,1<6[8:1],2,
{4}1,5,3/7,1/5,
{4}8<5[8:1],1,8>3[8:1],7,
{4}8,4,6/2,8/4,
{8}2>5[8:1],1,1,,2<7[8:1],3,3,,
{8}2/6,,2/6,1/5,8/4,,7/3,,
{8}6>3[8:1],8,8,,6<1[8:1],4,4,,
{8}7/3,,7/3,8/4,1/5,,2/6,,
{16}4,,,,6/8,,7,,3>8[8:1],,4,,5,,,,
{8}7h[4:1],,6,8,1-3[8:1]/4,,1,5,
{8}5-7[8:1],,5,8,8-4[8:1],,8,,
{8}8v7[8:1]/4v3[8:1],,8>2[8:1]/4<6[8:1],,,,,,
{16}5,,,,3/1,,2,,6<1[8:1],,5,,4,,,,
{8}2h[4:1],,3,1,8-6[8:1]/5,,8,4,
{8}4-2[8:1],,4,1,1-5[8:1],,1,,
{8}1v2[8:1]/5v6[8:1],,1<7[8:1]/5>3[8:1],,,,{16}2,1,8,7,
{16}6,,,,3/5,,4,,8>6[8:2]/5,,7,,2,,,,
{8}1h[4:1],,7,6,5/8-2[8:1],,8,4,
{8}4-6[8:1],,4,1,1-5[8:1],,1,,
{8}5v4[8:1]/1v8[8:1],,5<7[8:1]/1>3[8:1],,,,{16}8,1,2,3,
{16}4,,,,6/4,,5,,1<3[8:2]/4,,2,,7,,,,
{8}8h[4:1],,2,3,4/1-7[8:1],,1,5,
{8}5-3[8:1],,5,8,8-4[8:1],,8,,
{8}4v5[8:1]/8v1[8:1],,4>2[8:1]/8<6[8:1],,,,{16}1,8,7,6,
{8}5-1[8:1],,,,4-8[8:1],,,,
{8}5-2[8:1],,,,3-8[8:1],,,,
{8}6-1[8:1],,,,3-8[8:1],,,,
{8}5-2[8:1],,,,4-7[8:1],,,,
{8}5>2[8:1]/6p1[8:1],,,,4<7[8:1]/3q8[8:1],,,,
{8}2<7[8:1]/6q3[8:1],,,,5<8[8:1]/4>1[8:1],,,,
{8}2-5[8:1]/6-1[8:1],,,,1/5-1[8:1],,,,
{8}7v2[8:1],,2<4[4:1],,,,,3,
{8}4/2,2,7,5,6/4,6,2,4,
{8}5/3-5[8:1],3,7-1[8:1],7,4-1[8:1],,,7,
{8}6/8,6,3,5,4/6,4,8,6,
{8}7-5[8:1]/5,7,3-1[8:1],3,4-8[8:1],,,2,
{8}1/3,3,6,8,7/1,7,3,1,
{8}2-7[8:1]/8,2,6-3[8:1],6,8>3[8:1],,,6,
{8}7/5,7,2,4,5/3,3,5,2/6,
{8}1-5[8:1],1,6>3[8:1],6,2<7[8:1],,,,
{8}6/4,5,1,7,3/5,4,8,2,
{8}6-4[8:1]/4,6,8-3[8:1],8,7-5[8:1],,,1,
{8}2/4,3,7,1,5/3,4,8,6,
{8}1<6[8:1],1,4-7[8:1],4,8-3[8:1],,,,
{8}4/6,5,1,3,7/5,6,2,4,
{8}3-6[8:1]/5,3,7-2[8:1],7,5>2[8:1],,,6,
{8}1/7,8,4,2,6/8,7,3,1,
{8}8>3[8:1],8,5-2[8:1],5,1-6[8:1],,,,
{8}2-4[8:1],,2,,8-2[8:1],5,8,,
{8}6-8[8:1],,6,,4-6[8:1],1,4,2,
{8}2-8[8:1],,2,,6-4[8:1],1,6,8,
{8}7-3[8:1],,7,,8-2[8:1],5,8-4[8:1],6,
{8}8-2[8:1]*-6[8:1],,8,,4-6[8:1],8,4,1,
{8}1-7[8:1],3,1,2,3-5[8:1],8,3,1,
{8}2-8[8:1],3,2,4,5-3[8:1],8,5,7,
{8}6-4[8:1],7-1[8:1],6,7,3<6[8:1],2,3,8,
{16}1,2,3,4,5,,,,8,7,6,5,4,,,,
{16}1,2,3,,8,7,6,,3,2,1,8,7,,,,
{16}3,,2/4,,1,,6,,8>6[8:2]/5,,7,,2,,,,
{8}1h[4:1],,6,{16}7,8,{8}4/1-6[8:1],,1,4,
{8}3,5,1,3,4/2-4[8:1],2,5-7[8:1],5,
{8}1>4[8:1],1,6<1[8:1],6,2,,{16}3,,3,,
{16}6,,7/5,,8,,3,,1<3[8:2]/4,,2,,7,,,,
{8}8h[4:1],,3,{16}2,1,{8}5/8-3[8:1],,8,5,
{8}6,4,8,6,5/7-5[8:1],7,4-2[8:1],4,
{8}8<5[8:1],8,3>8[8:1],3,7,7,{16}5,,,,
{16}3,,2/4,,1,,6,,8>6[8:2]/4,,7,,2,,,,
{8}1h[4:1],,6,{16}7/3,8/4,{8}5/1-6[8:1],,1,4,
{8}3/5,2,1/4,3,6,7,8/5,6,
{8}2-5[8:1],2,1-6[8:1],1,4-2[8:1],4,{16}8,,,,
{16}6,,7/5,,8,,3,,1<3[8:2]/5,,2,,7,,,,
{8}8h[4:1],,3,{16}2/6,1/5,{8}4/8-3[8:1],,8,5,
{8}6/4,7,8/5,6,3,2,1/4,3,
{8}7-4[8:1],7,8-3[8:1],8,5-7[8:1],,{16}5pp1[8:6]/4qq8[8:6],,,,
{8}4b/5b,,,,,,,,
{8},,,,,,,,
{8}1-4[8:1]/5-8[8:1],,,,8-4[8:1],,,,
{8}2-4[8:1]/4-8[8:1],,,,8-6[8:1],,,,
{8}1-3[8:1]/4-7[8:1],,,,4-2[8:1]/1-6[8:1],,,,
{8}5-7[8:1]/8-3[8:1],,,,8-6[8:1]/5-2[8:1],,,,
{8}1v3[8:1]/4q8[8:1],1/4,,,4v2[8:1]/1p5[8:1],4/1,,,
{8}4v6[8:1]/8p3[8:1],4/8,,,7<4[8:1]/4q1[8:1],,,,
{8}3,,4,,5,,6,,
{8}7<3[4:4],,,,,,,,
{8}2,,1,,8,,7,,
{8}6>2[4:4],,,,,,,,
{8}1,,8,,7,,6,,
{8}5>1[4:4],,,,,,,,
{8}8,,7,,6,,5,,
{8}4,4,5,5,{16}3,4,3,4,2,,,,
{16}6,,3,4,2,,6,4,8>6[4:1],,2,,4,,,,
{16}1,,,3,4,,8,,6/5>2[8:1],,,,5,,7,,
{8}6-8[8:1],5,1-5[8:1],2,8-2[8:1],7,4-8[8:1],3,
{8}5-3[8:1],6,2,1-5[8:1],8,7,6,,
{16}3,,6,5,7,,3,5,1<3[4:1],,7,,5,,,,
{16}8,,,6,5,,1,,3/4<7[8:1],,,,4,,2,,
{8}3-1[8:1],4,8-4[8:1],7,1-7[8:1],2,5-1[8:1],6,
{8}4-6[8:1],3,7,8-4[8:1],1,2,3,{16},,
{16}1/5,,7,8,6,,3,5,1<3[4:1],,7,,5,,,,
{16}1,,,3,4,,7/8,6/1,2/5-3[8:1],,,,2,,1,,
{8}8-6[8:1],7,5-8[8:1],4,3-7[8:1],2,4-1[8:1],6,
{8}5-3[8:1],6,2,1-5[8:1],8,7,6,,
{16}8/4,,2,1,3,,6,5,8>6[4:1],,2,,4,,,,
{16}8,,,6,5,,2/1,3/8,7/4-6[8:1],,,,7,,8,,
{8}1-3[8:1],2,4-1[8:1],5,8q4[8:1],7,5-8[8:1],6,
{8}4-6[8:1],3,7,8-4[8:1],1,2,3,,
{8},,,,,,,,
{8},,,,,,,,
{8},,,,,,,,
{8},,,,,,,,
{8},,,,,,,,
{8},,,,,,,,
{8},,,,,,,,
{8},,,,,,,,
E
&inote_4=(180)
{4},,,,
{4},,,,
{4}1>4[8:1],8,1<6[8:1],2,
{4}1,5,3/7,1/5,
{4}8<5[8:1],1,8>3[8:1],7,
{4}8,4,6/2,8/4,
{8}2>5[8:1],1,1,,2<7[8:1],3,3,,
{8}2/6,,2/6,1/5,8/4,,7/3,,
{8}6>3[8:1],8,8,,6<1[8:1],4,4,,
{8}7/3,,7/3,8/4,1/5,,2/6,,
{16}4,,,,6/8,,7,,3>8[8:1],,4,,5,,,,
{8}7h[4:1],,6,8,1-3[8:1]/4,,1,5,
{8}5-7[8:1],,5,8,8-4[8:1],,8,,
{8}8v7[8:1]/4v3[8:1],,8>2[8:1]/4<6[8:1],,,,,,
{16}5,,,,3/1,,2,,6<1[8:1],,5,,4,,,,
{8}2h[4:1],,3,1,8-6[8:1]/5,,8,4,
{8}4-2[8:1],,4,1,1-5[8:1],,1,,
{8}1v2[8:1]/5v6[8:1],,1<7[8:1]/5>3[8:1],,,,{16}2,1,8,7,
{16}6,,,,3/5,,4,,8>6[8:2]/5,,7,,2,,,,
{8}1h[4:1],,7,6,5/8-2[8:1],,8,4,
{8}4-6[8:1],,4,1,1-5[8:1],,1,,
{8}5v4[8:1]/1v8[8:1],,5<7[8:1]/1>3[8:1],,,,{16}8,1,2,3,
{16}4,,,,6/4,,5,,1<3[8:2]/4,,2,,7,,,,
{8}8h[4:1],,2,3,4/1-7[8:1],,1,5,
{8}5-3[8:1],,5,8,8-4[8:1],,8,,
{8}4v5[8:1]/8v1[8:1],,4>2[8:1]/8<6[8:1],,,,{16}1,8,7,6,
{8}5-1[8:1],,,,4-8[8:1],,,,
{8}5-2[8:1],,,,3-8[8:1],,,,
{8}6-1[8:1],,,,3-8[8:1],,,,
{8}5-2[8:1],,,,4-7[8:1],,,,
{8}5>2[8:1]/6p1[8:1],,,,4<7[8:1]/3q8[8:1],,,,
{8}2<7[8:1]/6q3[8:1],,,,5<8[8:1]/4>1[8:1],,,,
{8}2-5[8:1]/6-1[8:1],,,,1/5-1[8:1],,,,
{8}7v2[8:1],,2<4[4:1],,,,,3,
{8}4/2,2,7,5,6/4,6,2,4,
{8}5/3-5[8:1],3,7-1[8:1],7,4-1[8:1],,,7,
{8}6/8,6,3,5,4/6,4,8,6,
{8}7-5[8:1]/5,7,3-1[8:1],3,4-8[8:1],,,2,
{8}1/3,3,6,8,7/1,7,3,1,
{8}2-7[8:1]/8,2,6-3[8:1],6,8>3[8:1],,,6,
{8}7/5,7,2,4,5/3,3,5,2/6,
{8}1-5[8:1],1,6>3[8:1],6,2<7[8:1],s,,,
{8}6/4,5,4,7,3/5,4,8,2,
{8}6-4[8:1]/4,6,8-3[8:1],8,7-5[8:1],,,1,
{8}2/4,3,7,1,5/3,4,8,6,
{8}1<6[8:1],1,4-7[8:1],4,8-3[8:1],,,,
{8}4/6,5,1,3,7/5,6,2,4,
{8}3-6[8:1]/5,3,7-2[8:1],7,5>2[8:1],,,6,
{8}1/7,8,4,2,6/8,7,3,1,
{8}8>3[8:1],8,5-2[8:1],5,1-6[8:1],,,,
{8}2-4[8:1],,2,,8-2[8:1],5,8,,
{8}6-8[8:1],,6,,4-6[8:1],1,4,2,
{8}2-8[8:1],,2,,6-4[8:1],1,6,8,
{8}7-3[8:1],,7,,8-2[8:1],5,8-4[8:1],6,
{8}8-2[8:1]*-6[8:1],,8,,4-6[8:1],8,4,1,
{8}1-7[8:1],3,1,2,3-5[8:1],8,3,1,
{8}2-8[8:1],3,2,4,5-3[8:1],8,5,7,
{8}6-4[8:1],7-1[8:1],6,7,3<6[8:1],2,3,8,
{16}1,2,3,4,5,,,,8,7,6,5,4,,,,
{16}1,2,3,,8,7,6,,3,2,1,8,7,,,,
{16}3,,2/4,,1,,6,,8>6[8:2]/5,,7,,2,,,,
{8}1h[4:1],,6,{16}7,8,{8}1-6[8:1]/3,,1,4,
{8}3,5,1,3,4/2-4[8:1],2,5-7[8:1],5,
{8}1>4[8:1],1,6<1[8:1],6,2,,{16}3,,3,,
{16}6,,7/5,,8,,3,,1<3[8:2]/4,,2,,7,,,,
{8}8h[4:1],,3,{16}2,1,{8}8-3[8:1]/6,,8,5,
{8}6,4,8,6,5/7-5[8:1],7,4-2[8:1],4,
{8}8<5[8:1],8,3>8[8:1],3,7,7,{16}5,,,,
{16}3,,2/4,,1,,6,,8>6[8:2]/4,,7,,2,,,,
{8}1h[4:1],,6,{16}7/3,8/4,{8}5/1-6[8:1],,1,4,
{8}3/5,2,1/4,3,7,6,8/5,7,
{8}2-5[8:1],2,1-6[8:1],1,4-2[8:1],4,{16}8,,,,
{16}6,,7/5,,8,,3,,1<3[8:2]/5,,2,,7,,,,
{8}8h[4:1],,3,{16}2/6,1/5,{8}4/8-3[8:1],,8,5,
{8}6/4,7,8/5,6,2,3,1/4,2,
{8}7-4[8:1],7,8-3[8:1],8,5-7[8:1],,{16}5pp1[8:6]/4qq8[8:6],,,,
{8}4b/5b,,,,,,,,
{8},,,,,,,,
{8}1-4[8:1]/5-8[8:1],,,,8-4[8:1],,,,
{8}2-4[8:1]/4-8[8:1],,,,8-6[8:1],,,,
{8}1-3[8:1]/4-7[8:1],,,,4-2[8:1]/1-6[8:1],,,,
{8}5-7[8:1]/8-3[8:1],,,,8-6[8:1]/5-2[8:1],,,,
{8}1v3[8:1]/4q8[8:1],1/4,,,4v2[8:1]/1p5[8:1],4/1,,,
{8}4q8[8:1]/1>3[8:1],4/1,,,7<4[8:1]/4q1[8:1],,,,
{8}3,,4,,5,,6,,
{8}7<3[4:4],,,,,,,,
{8}2,,1,,8,,7,,
{8}6>2[4:4],,,,,,,,
{8}1,,8,,7,,6,,
{8}5>1[4:4],,,,,,,,
{8}8,,7,,6,,5,,
{8}4,4,5,5,{16}3,4,3,4,2,,,,
{16}6,,3,4,2,,6,5,8>6[4:1],,2,,4,,,,
{16}1,,,3,4,,8,,6/5>2[8:1],,,,5,,7,,
{8}6-8[8:1],5,1-5[8:1],2,8-2[8:1],7,4-8[8:1],3,
{8}5-3[8:1],6,2,1-5[8:1],8,7,6,,
{16}3,,6,5,7,,3,4,1<3[4:1],,7,,5,,,,
{16}8,,,6,5,,1,,3/4<7[8:1],,,,4,,2,,
{8}3-1[8:1],4,8-4[8:1],7,1-7[8:1],2,5-1[8:1],6,
{8}4-6[8:1],3,7,8-4[8:1],1,2,3,{16},,
{16}1/5,,7,8,6,,3,4,1<3[4:1],,7,,5,,,,
{16}1,,,3,4,,7/8,6/1,2-4[8:1]/5,,,,7,,8,,
{8}1-7[8:1],2,5-1[8:1],4,6-4[8:1],7,2-6[8:1],3,
{8}1-3[8:1],8,4,5-1[8:1],6,7,8,,
{16}8/4,,2,1,3,,6,5,8>6[4:1],,2,,4,,,,
{16}8,,,6,5,,2/1,3/8,7/4-6[8:1],,,,7,,8,,
{8}1-3[8:1],2,4-1[8:1],5,8q4[8:1],7,5-8[8:1],6,
{8}4-6[8:1],3,7,8-4[8:1],1,2,3,,
{8},,,,,,,,
{8},,,,,,,,
{8},,,,,,,,
{8},,,,,,,,
{8},,,,,,,,
{8},,,,,,,,
{8},,,,,,,,
{8},,,,,,,,
E
&inote_5=(180)
{4},,,,
{4},,,,
{4}1>4[8:1],8,1<6[8:1],2,
{4}1,5,3/7,1/5,
{4}8<5[8:1],1,8>3[8:1],7,
{4}8,4,6/2,8/4,
{8}2>5[8:1],1,1,,2<7[8:1],3,3,,
{8}2/6,,2/6,1/5,8/4,,7/3,,
{8}6>3[8:1],8,8,,6<1[8:1],4,4,,
{8}7/3,,7/3,8/4,1/5,,2/6,,
{16}4,,,,6/8,,7,,3>8[8:1],,4,,5,,,,
{8}7h[4:1],,6,8,1-3[8:1]/4,,1,5,
{8}5-7[8:1],,5,8,8-4[8:1],,8,,
{8}8v7[8:1]/4v3[8:1],,8>2[8:1]/4<6[8:1],,,,,,
{16}5,,,,3/1,,2,,6<1[8:1],,5,,4,,,,
{8}2h[4:1],,3,1,8-6[8:1]/5,,8,4,
{8}4-2[8:1],,4,1,1-5[8:1],,1,,
{8}1v2[8:1]/5v6[8:1],,1<7[8:1]/5>3[8:1],,,,{16}2,1,8,7,
{16}6,,,,3/5,,4,,8>6[8:2]/5,,7,,2,,,,
{8}1h[4:1],,7,6,5/8-2[8:1],,8,4,
{8}4-6[8:1],,4,1,1-5[8:1],,1,,
{8}5v6[8:1]/1v2[8:1],,5<8[8:1]/1>4[8:1],,,,{16}1,2,3,4,
{16}5,,,,6/4,,5,,1<3[8:2]/4,,2,,7,,,,
{8}8h[4:1],,2,3,4/1-7[8:1],,1,5,
{8}5-3[8:1],,5,8,8-4[8:1],,8,,
{8}4v3[8:1]/8v7[8:1],,4>1[8:1]/8<5[8:1],,,,{16}8,7,6,5,
{8}4-1[8:1],,,,5p1[8:1],,,,
{8}6p2[8:1],,,,8<5[8:1],,,,
{8}1-4[8:1],,,,8q4[8:1],,,,
{8}7q3[8:1],,,,5<8[8:1],,,,
{8}5>2[8:1]/1,,7,,1>4[8:1]/5,,7,,
{8}1<6[8:1]/5,,3,,8>2[24:2]/4<6[24:2],,,,
{8}2-7[8:1]/6-3[8:1],,2/6,,8-3[8:1]/4-7[8:1],,8/4,,
{8}8<5[8:1]/4>1[8:1],,8-4[8:1],,,,,3,
{8}4/2,2,6,4,5/3,5,2,6,
{8}5/3-5[8:1],3,7-1[8:1],7,4-1[8:1],,,7,
{8}6/8,6,2,4,5/3,3,6,1,
{8}2-4[8:1]/4,2,6-8[8:1],6,5-1[8:1],,,7,
{8}8/6,6,2,4,3/5,3,6,2,
{8}1-4[8:1]/7,1,5-8[8:1],5,2>4[24:2],,,6,
{8}7/5,7,2,4,5/3,3,6,2/7,
{8}1-5[8:1],1,6>3[8:1],6,2<7[8:1],,,,
{8}2/4,3,8,6,7/5,6,1,4,
{8}3-6[8:1]/5,3,7-2[8:1],7,4>1[8:1],,,7,
{8}8/6,7,2,4,3/5,4,8,2,
{8}1<6[8:1],1,4-7[8:1],4,8-3[8:1],,,,
{8}7/5,6,1,3,2/4,3,8,5,
{8}6-4[8:1]/4,6,8-3[8:1],8,7-5[8:1],,,1,
{8}2/4,3,7,1,6/4,5,1,7,
{8}8>3[8:1],8,5-2[8:1],5,1-6[8:1],,,,
{8}2-4[8:1],,2,,8-2[8:1],5,8,,
{8}6-8[8:1],,6,,4-6[8:1],1,4,2,
{8}2-8[8:1],,2,,6-4[8:1],1,6,8,
{8}7-3[8:1],,7,,8-2[8:1],5,8-4[8:1],6,
{8}8-2[8:1]*-6[8:1],,8,,4-6[8:1],8,4,1,
{8}1-7[8:1],3,1,2,3-5[8:1],8,3,1,
{8}2-8[8:1],3,2,4,5-3[8:1],8,5,7,
{8}6-4[8:1],7-1[8:1],6,7,3<6[8:1],2,3,8,
{16}1x,2x,3x,4x,5x,,,,8x,7x,6x,5x,4x,,,,
{16}1x,2x,3x,,8x,7x,6x,,3x,2x,1x,8x,7x,,,,
{16}3,,2/4,,6,,7/5,,8>5[24:5],,4,,2,,,,
{8}1h[4:1],,6,{16}3,4,{8}3-6[8:1],,3,7,
{8}8,1,2-5[8:1]/8,3,2/4,6,7/5,6,
{8}2>5[8:1],2,6<1[8:1],6,2,,{16}3,,3,,
{16}6,,7/5,,3,,2/4,,1<4[24:5],,5,,7,,,,
{8}8h[4:1],,3,{16}6,5,{8}6-3[8:1],,6,2,
{8}1,8,7-4[8:1]/1,6,7/5,3,2/4,3,
{8}7<4[8:1],7,3pp7[8:3]*qq7[8:3],3,,,{16},,,,
{16}2,,1/3,,7,,6/8,,4>7[24:5],,2,,8,,,,
{8}4h[4:1],,2,{16}8,7,{8}6-1[8:1],,6,4,
{8}2,3,1-6[8:1]/4,3,1,4,5/3,6,
{8}7-4[8:1]/5,3,2/7,1,8-3[8:1],8,{16},,,,
{16}7,,8/6,,2,,3/1,,5<2[24:5],,7,,1,,,,
{8}5h[4:1],,7,{16}1,2,{8}3-8[8:1],,3,5,
{8}7,6,8-3[8:1]/5,6,8,5,4/6,3,
{8}2-5[8:1]/4,6,7/2,8,1,,{16}5pp1[8:6]/4qq8[8:6],,,,
{8}4bx/5bx,,,,,,,,
{8},,,,,,,,
{8}1>4[8:1]/5<8[8:1],,,,1-5[8:1],,,,
{8}8>3[8:1]/4<7[8:1],,,,8-4[8:1],,,,
{8}3<6[8:1],1,1,,3>8[8:1],5,5,,
{8}8V27[8:1],5,5,,8-6[8:1]/5-2[8:1],,,,
{8}6>3[8:1],8,8,,6<1[8:1],4,4,,
{8}1V72[8:1],4,4,,1-6[8:1]/4V25[8:1],,,,
{8}3,,4,,5,,6,,
{8}7<3[4:4],,,,,,,,
{8}2,,1,,8,,7,,
{8}6>2[4:4],,,,,,,,
{8}1,,8,,7,,6,,
{8}5>1[4:4],,,,,,,,
{8}8,,7,,6,,5,,
{8}4,4,5,5,{16}3,4,3,4,2,,,,
{16}6,,3,4,2,,6,5,8>6[4:1],,2,,4,,,,
{16}1,,,3,4,,8,,6/5>2[8:1],,,,5,,7,,
{8}6-8[8:1],5,1-5[8:1],2,8-2[8:1],7,4-8[8:1],3,
{8}7-5[8:1],6,1-5[8:1],2,7,8,1,{16},,
{16}3,,6,5,7,,3,4,1<3[4:1],,7,,5,,,,
{16}8,,,6,5,,1,,3/4<7[8:1],,,,4,,2,,
{8}3-1[8:1],4,8-4[8:1],7,1-7[8:1],2,5,6,
{8}2>5[8:1],5,2,7-4[8:1],4-7[8:1],,,{16},,
{16}1/5,,7,8,6,,3,4,1<3[4:1],,7,,5,,,,
{16}8,,,3,4,,7/8,6/1,2-6[8:1]/5,,,,2,,7,,
{8}1<6[8:1],3,1-4[8:1],4,1,5,6>3[8:1],1,
{8}6,8,8-2[8:1],8-6[8:1],8-4[8:1],,,,
{16}8/4,,2,1,3,,6,5,8>6[4:1],,2,,4,,,,
{16}1,,,6,5,,2/1,3/8,7-3[8:1]/4,,,,7,,2,,
{8}8>3[8:1],6,8-5[8:1],5,8,4,3<6[8:1],8,
{8}3,1,1,,1-6[8:1]/8-3[8:1],,1s5[8:1]/8z4[8:1],,
{8}1b>8[4:3]/8b<1[4:3],,,,,,,,
{8},,,,,,,,
{8}1-4[8:1]/5-8[8:1],,,,8-4[8:1],,,,
{8}2/4<7[8:1],,2<7[8:1],,7v2[8:1],,,,
{8}7<4[8:1],,,,7>2[8:1],,,,
{8}7v2[8:1],,1-7[8:1],,4-8[8:1],,,,
{8}7-4[8:1]/2-8[8:1],,,,1-3[8:1]/4-7[8:1],,,,
{16}1x,1x,1x,1x,1x,1x,1x,1x,1x,,,,,,,,
E
&inote_6=(180)
{4},,,,
{4},,,,
{4}1>4[8:1],8,1<6[8:1],2,
{4}1,5,3/7,1/5,
{4}8<5[8:1],1,8>3[8:1],7,
{4}8,4,6/2,8/4,
{8}2>5[8:1],1,1,,2<7[8:1],3,3,,
{8}2/6,,2/6,1/5,8/4,,7/3,,
{8}6>3[8:1],8,8,,6<1[8:1],4,4,,
{8}7/3,,7/3,8/4,1/5,,2/6,,
{16}4,,,,6/8,,7,,3>8[8:1],,4,,5,,,,
{8}7h[4:1],,6,8,1-3[8:1]/4,,1,5,
{8}5-7[8:1],,5,8,8-4[8:1],,8,,
{8}8v7[8:1]/4v3[8:1],,8>2[8:1]/4<6[8:1],,,,,,
{16}5,,,,3/1,,2,,6<1[8:1],,5,,4,,,,
{8}2h[4:1],,3,1,8-6[8:1]/5,,8,4,
{8}4-2[8:1],,4,1,1-5[8:1],,1,,
{8}1v2[8:1]/5v6[8:1],,1<7[8:1]/5>3[8:1],,,,{16}2,1,8,7,
{16}6,,,,3/5,,4,,8>6[8:2]/5,,7,,2,,,,
{8}1h[4:1],,7,6,5/8-2[8:1],,8,4,
{8}4-6[8:1],,4,1,1-5[8:1],,1,,
{8}5v4[8:1]/1v8[8:1],,5<7[8:1]/1>3[8:1],,,,{16}8,1,2,3,
{16}4,,,,6/4,,5,,1<3[8:2]/4,,2,,7,,,,
{8}8h[4:1],,2,3,4/1-7[8:1],,1,5,
{8}5-3[8:1],,5,8,8-4[8:1],,8,,
{8}4v5[8:1]/8v1[8:1],,4>2[8:1]/8<6[8:1],,,,{16}1,8,7,6,
{8}5-1[8:1],,,,4-8[8:1],,,,
{8}5-2[8:1],,,,3-8[8:1],,,,
{8}6-1[8:1],,,,3-8[8:1],,,,
{8}5-2[8:1],,,,4-7[8:1],,,,
{8}5>2[8:1]/6p1[8:1],,,,4<7[8:1]/3q8[8:1],,,,
{8}2<7[8:1]/6q3[8:1],,,,5<8[8:1]/4>1[8:1],,,,
{8}2-5[8:1]/6-1[8:1],,,,1/5-1[8:1],,,,
{8}7v2[8:1],,2<4[4:1],,,,,3,
{8}4/2,2,7,5,6/4,6,2,4,
{8}5/3-5[8:1],3,7-1[8:1],7,4-1[8:1],,,7,
{8}6/8,6,3,5,4/6,4,8,6,
{8}7-5[8:1]/5,7,3-1[8:1],3,4-8[8:1],,,2,
{8}1/3,3,6,8,7/1,7,3,1,
{8}2-7[8:1]/8,2,6-3[8:1],6,8>3[8:1],,,6,
{8}7/5,7,2,4,5/3,3,6,2/7,
{8}1-5[8:1],1,6>3[8:1],6,2<7[8:1],s,,,
{8}6/4,5,2,7,3/5,4,8,2,
{8}6-4[8:1]/4,6,8-3[8:1],8,7-5[8:1],,,1,
{8}2/4,3,7,1,5/3,4,8,2,
{8}1<6[8:1],1,4-7[8:1],4,8-3[8:1],,,,
{8}4/6,5,1,7,5/3,4,8,2,
{8}3-6[8:1]/5,3,7-2[8:1],7,5>2[8:1],,,6,
{8}1/7,8,4,6,1/3,2,6,1,
{8}8>3[8:1],8,5-2[8:1],5,1-6[8:1],,,,
{8}2-4[8:1],,2,,8-2[8:1],5,8,,
{8}6-8[8:1],,6,,4-6[8:1],1,4,2,
{8}2-8[8:1],,2,,6-4[8:1],1,6,8,
{8}7-3[8:1],,7,,8-2[8:1],5,8-4[8:1],6,
{8}8-2[8:1]*-6[8:1],,8,,4-6[8:1],8,4,1,
{8}1-7[8:1],3,1,2,3-5[8:1],8,3,1,
{8}2-8[8:1],3,2,4,5-3[8:1],8,5,7,
{8}6-4[8:1],7-1[8:1],6,7,3<6[8:1],2,3,8,
{16}1,2,3,4,5,,,,8,7,6,5,4,,,,
{16}1,2,3,,8,7,6,,3,2,1,8,7,,,,
{16}3,,2/4,,1,,6,,8>6[8:2]/5,,7,,2,,,,
{8}1h[4:1],,6,{16}7,8,{8}1-6[8:1],,1,4,
{8}8,5,1,3,4/2-4[8:1],2,5-7[8:1],5,
{8}1>4[8:1],1,6<1[8:1],6,2,,{16}3,,3,,
{16}6,,7/5,,8,,3,,1<3[8:2]/4,,2,,7,,,,
{8}8h[4:1],,3,{16}2,1,{8}8-3[8:1],,8,5,
{8}1,4,8,6,5/7-5[8:1],7,4-2[8:1],4,
{8}8<5[8:1],8,3pp7[8:2]*qq7[8:2],3,,,{16},,,,
{16}3,,2/4,,1,,6,,8>6[8:2]/4,,7,,2,,,,
{8}1h[4:1],,6,{16}7/3,8/4,{8}5/1-6[8:1],,1,4,
{8}3/5,2,1-7[8:1]/4,3,1-3[8:1],4,1,6,
{8}6-4[8:1],1,6,8,7-3[8:1],7,{16},,,,
{16}6,,7/5,,8,,3,,1<3[8:2]/5,,2,,7,,,,
{8}8h[4:1],,3,{16}2/6,1/5,{8}4/8-3[8:1],,8,5,
{8}6/4,7,8-2[8:1]/5,6,8-6[8:1],5,8,3,
{8}3-1[8:1],8,3,4,4-7[8:1],,{16}5pp1[8:6]/4qq8[8:6],,,,
{8}4bx/5bx,,,,,,,,
{8},,,,,,,,
{8}1-4[8:1]/5-8[8:1],,,,8-4[8:1],,,,
{8}2-4[8:1]/4-8[8:1],,,,8-6[8:1],,,,
{8}1-3[8:1]/4-7[8:1],,,,4-2[8:1]/1-6[8:1],,,,
{8}5-7[8:1]/8-3[8:1],,,,8-6[8:1]/5-2[8:1],,,,
{8}1v3[8:1]/4q8[8:1],1/4,,,4v2[8:1]/1p5[8:1],4/1,,,
{8}4q8[8:1]/1>3[8:1],4/1,,,7<4[8:1]/4q1[8:1],,,,
{8}3,,4,,5,,6,,
{8}7<3[4:4],,,,,,,,
{8}2,,1,,8,,7,,
{8}6>2[4:4],,,,,,,,
{8}1,,8,,7,,6,,
{8}5>1[4:4],,,,,,,,
{8}8,,7,,6,,5,,
{8}4,4,5,5,{16}3,4,3,4,2,,,,
{16}6,,3,4,2,,6,5,8>6[4:1],,2,,4,,,,
{16}1,,,3,4,,8,,6/5>2[8:1],,,,5,,7,,
{8}6-8[8:1],5,1-5[8:1],2,8-4[8:1],7,3-1[8:1],2,
{8}5-7[8:1],6,8,1-5[8:1],8,7,6,{16},,
{16}3,,6,5,7,,3,4,1<3[4:1],,7,,5,,,,
{16}8,,,6,5,,1,,3/4<7[8:1],,,,4,,2,,
{8}3-1[8:1],4,8-4[8:1],7,1-5[8:1],2,6-8[8:1],7,
{8}4-2[8:1],3,1,8-4[8:1],1,2,3,{16},,
{16}1/5,,7,8,6,,3,4,1<3[4:1],,7,,5,,,,
{16}1,,,3,4,,7/8,6/1,2-4[8:1]/5,,,,7,,8,,
{8}1-7[8:1],2,4-8[8:1],3,5-3[8:1],6,1-5[8:1],2,
{8}8-2[8:1],7,3,4-8[8:1],5,6,7,,
{16}8/4,,2,1,3,,6,5,8>6[4:1],,2,,4,,,,
{16}8,,,6,5,,2/1,3/8,7-5[8:1]/4,,,,2,,1,,
{8}8-2[8:1],7,5-1[8:1],6,4-6[8:1],3,8-4[8:1],7,
{8}1-7[8:1],2,6,5-1[8:1],4,3,2,,
{8}1b>5[4:3]*<5[4:3],,,,,,,,
{8},,,,,,,,
{8}1-4[8:1]/5-8[8:1],,,,8-4[8:1],,,,
{8}2/4-8[8:1],,2,,4<7[8:1],,7>2[8:1],,
{8}2v7[8:1],,,,2v7[8:1]*<7[8:1],,,,
{8}4-6[8:1],,7-1[8:1],,4-8[8:1],,,,
{8}1-3[8:1]/4-7[8:1],,,,8-6[8:1]/5-2[8:1],,,,
{16}1x,1x,1x,1x,1x,1x,1x,1x,1x,,,,,,,,
E
&inote_7=(180)
{4},,,,
{4},,,,
{4}1>4[8:1],8,1<6[8:1],2,
{4}1,5,3/7,1/5,
{4}8<5[8:1],1,8>3[8:1],7,
{4}8,4,6/2,8/4,
{8}2>5[8:1],1,1,,2<7[8:1],3,3,,
{8}2/6,,2/6,1/5,8/4,,7/3,,
{8}6>3[8:1],8,8,,6<1[8:1],4,4,,
{8}7/3,,7/3,8/4,1/5,,2/6,,
{16}4,,,,6/8,,7,,3>8[8:1],,4,,5,,,,
{8}7h[4:1],,6,8,1-3[8:1]/4,,1,5,
{8}5-7[8:1],,5,8,8-4[8:1],,8,,
{8}8v7[8:1]/4v3[8:1],,8>2[8:1]/4<6[8:1],,,,,,
{16}5,,,,3/1,,2,,6<1[8:1],,5,,4,,,,
{8}2h[4:1],,3,1,8-6[8:1]/5,,8,4,
{8}4-2[8:1],,4,1,1-5[8:1],,1,,
{8}1v2[8:1]/5v6[8:1],,1<7[8:1]/5>3[8:1],,,,{16}2,1,8,7,
{16}6,,,,3/5,,4,,8>6[8:2]/5,,7,,2,,,,
{8}1h[4:1],,7,6,5/8-2[8:1],,8,4,
{8}4-6[8:1],,4,1,1-5[8:1],,1,,
{8}5v4[8:1]/1v8[8:1],,5<7[8:1]/1>3[8:1],,,,{16}8,1,2,3,
{16}4,,,,6/4,,5,,1<3[8:2]/4,,2,,7,,,,
{8}8h[4:1],,2,3,4/1-7[8:1],,1,5,
{8}5-3[8:1],,5,8,8-4[8:1],,8,,
{8}4v5[8:1]/8v1[8:1],,4>2[8:1]/8<6[8:1],,,,{16}1,8,7,6,
{8}5-1[8:1],,,,4-8[8:1],,,,
{8}5-2[8:1],,,,3-8[8:1],,,,
{8}6-1[8:1],,,,3-8[8:1],,,,
{8}5-2[8:1],,,,4-7[8:1],,,,
{8}5>2[8:1]/6p1[8:1],,,,4<7[8:1]/3q8[8:1],,,,
{8}2<7[8:1]/6q3[8:1],,,,5<8[8:1]/4>1[8:1],,,,
{8}2-5[8:1]/6-1[8:1],,,,1/5-1[8:1],,,,
{8}7v2[8:1],,2<4[4:1],,,,,3,
{8}4/2,2,7,5,6/4,6,2,4,
{8}5/3-5[8:1],3,7-1[8:1],7,4-1[8:1],,,7,
{8}6/8,6,3,5,4/6,4,8,6,
{8}7-5[8:1]/5,7,3-1[8:1],3,4-8[8:1],,,2,
{8}1/3,3,6,8,7/1,7,3,1,
{8}2-7[8:1]/8,2,6-3[8:1],6,8>3[8:1],,,6,
{8}7/5,7,2,4,5/3,3,6,2/7,
{8}1-5[8:1],1,6>3[8:1],6,2<7[8:1],,,,
{8}6/4,5,1,7,3/5,4,8,2,
{8}6-4[8:1]/4,6,8-3[8:1],8,7-5[8:1],,,1,
{8}2/4,3,7,1,5/3,4,7,2,
{8}1<6[8:1],1,4-7[8:1],4,8-3[8:1],,,,
{8}4/6,5,1,7,5/3,4,8,2,
{8}3-6[8:1]/5,3,7-2[8:1],7,5>2[8:1],,,6,
{8}1/7,8,4,6,1/3,2,6,1,
{8}8>3[8:1],8,5-2[8:1],5,1-6[8:1],,,,
{8}2-4[8:1],,2,,8-2[8:1],5,8,,
{8}6-8[8:1],,6,,4-6[8:1],1,4,2,
{8}2-8[8:1],,2,,6-4[8:1],1,6,8,
{8}7-3[8:1],,7,,8-2[8:1],5,8-4[8:1],6,
{8}8-2[8:1]*-6[8:1],,8,,4-6[8:1],8,4,1,
{8}1-7[8:1],3,1,2,3-5[8:1],8,3,1,
{8}2-8[8:1],3,2,4,5-3[8:1],8,5,7,
{8}6-4[8:1],7-1[8:1],6,7,3<6[8:1],2,3,8,
{16}1x,2x,3x,4x,5x,,,,8x,7x,6x,5x,4x,,,,
{16}1x,2x,3x,,8x,7x,6x,,3x,2x,1x,8x,7x,,,,
{16}3,,2/4,,6,,7/5,,8>5[8:2],,4,,2,,,,
{8}1h[4:1],,6,{16}3,4,{8}3-6[8:1],,3,7,
{8}8,1,2/8,3,4/2-4[8:1],2,5-7[8:1],5,
{8}1>4[8:1],1,6<1[8:1],6,2,,{16}3,,3,,
{16}6,,7/5,,8,,3,,1<4[8:2]/4,,2,,7,,,,
{8}8h[4:1],,4,{16}2,1,{8}8-3[8:1],,8,5,
{8}1,4,8,6,5/7-5[8:1],7,4-2[8:1],4,
{8}8<5[8:1],8,3pp7[8:3]*qq7[8:3],3,,,{16},,,,
{16}3,,2/4,,1,,6,,8>5[8:2]/4,,7,,2,,,,
{8}1h[4:1],,5,{16}7/3,8/4,{8}5/1-6[8:1],,1,4,
{8}3/5,2,1-7[8:1]/4,3,1-3[8:1],4,1,6,
{8}6-4[8:1],1,6,8,7-3[8:1],7,{16},,,,
{16}6,,7/5,,8,,3,,1<4[8:2]/5,,2,,7,,,,
{8}8h[4:1],,4,{16}2/6,1/5,{8}4/8-3[8:1],,8,5,
{8}6/4,7,8-2[8:1]/5,6,8-6[8:1],5,8,3,
{8}3-1[8:1],8,3,4,4-7[8:1],,{16}5pp1[8:6]/4qq8[8:6],,,,
{8}4bx/5bx,,,,,,,,
{8},,,,,,,,
{8}1-4[8:1]/5-8[8:1],,,,8-4[8:1],,,,
{8}2-4[8:1]/4-8[8:1],,,,8-6[8:1],,,,
{8}1-3[8:1]/4-7[8:1],,,,4-2[8:1]/1-6[8:1],,,,
{8}5-7[8:1]/8-3[8:1],,,,8-6[8:1]/5-2[8:1],,,,
{8}1v3[8:1]/4q8[8:1],1/4,,,4v2[8:1]/1p5[8:1],4/1,,,
{8}4q8[8:1]/1>3[8:1],4/1,,,1-6[8:1]/4V25[8:1],,,,
{8}3,,4,,5,,6,,
{8}7<3[4:4],,,,,,,,
{8}2,,1,,8,,7,,
{8}6>2[4:4],,,,,,,,
{8}1,,8,,7,,6,,
{8}5>1[4:4],,,,,,,,
{8}8,,7,,6,,5,,
{8}4,4,5,5,{16}3,4,3,4,2,,,,
{16}6,,3,4,2,,6,5,8>6[4:1],,2,,4,,,,
{16}1,,,3,4,,8,,6/5>2[8:1],,,,5,,7,,
{8}6-8[8:1],5,1-5[8:1],2,8-2[8:1],7,4-8[8:1],3,
{8}7-5[8:1],6,1-5[8:1],2,7,8,1,{16},,
{16}3,,6,5,7,,3,4,1<3[4:1],,7,,5,,,,
{16}8,,,6,5,,1,,3/4<7[8:1],,,,4,,2,,
{8}3-1[8:1],4,8-4[8:1],7,1-7[8:1],2,5-1[8:1],6,
{8}2-4[8:1],3,8-4[8:1],7,2,1,8,{16},,
{16}1/5,,7,8,6,,3,4,1<3[4:1],,7,,5,,,,
{16}1,,,3,4,,7/8,6/1,2-6[8:1]/5,,,,2,,7,,
{8}8-2[8:1],1,3-7[8:1],4,6-4[8:1],5,2,1,
{8}8-2[8:1],8-6[8:1],8-3[8:1],8-5[8:1],8-4[8:1],,,,
{16}8/4,,2,1,3,,6,5,8>6[4:1],,2,,4,,,,
{16}8,,,6,5,,2/1,3/8,7-3[8:1]/4,,,,7,,2,,
{8}1-7[8:1],8,6-2[8:1],5,3-5[8:1],4,7,8,
{8}1-6[8:1],1,1,,1<6[8:1]/8>3[8:1],,1s5[8:1]/8z4[8:1],,
{8}1b>8[4:3]/8b<1[4:3],,,,,,,,
{8},,,,,,,,
{8}1-4[8:1]/5-8[8:1],,,,8-4[8:1],,,,
{8}2/4<7[8:1],,2<7[8:1],,7v2[8:1],,,,
{8}7<4[8:1],,,,7>2[8:1],,,,
{8}7v2[8:1],,1-7[8:1],,4-8[8:1],,,,
{8}7-4[8:1]/2-8[8:1],,,,1-3[8:1]/4-7[8:1],,,,
{16}1x,1x,1x,1x,1x,1x,1x,1x,1x,,,,,,,,
E
