&title=キヤロラ衛星の軌跡
&artist=工藤吉三(ベイシスケイプ)
&first=0
&des=太空人shangle!
&lv_5=14
&inote_5=(150)
||1
{1}
,
2<7[16:11],
3v4[16:11],
1p5[16:11],
{16}
3,4,5,6,3,4,5,6,2,3,4,5,8,7,6,5,
||2
{16}
2,2h[8:1],,8,8h[8:3]
,,1,2,3,4,5,,46,,1,,
7,7h[8:1],,1,1h[8:3],,8,7,6v5[32:5],5,4,,2,,2,,
1,1h[8:1],,7,7h[8:3],,8,1,2,3,4,,35,,8,,
2,2h[8:1],,5,5h[8:1],,
{24}
1,2,3,45,,,2,3,4,
{16}
56,,87,,
{16}
3,4,,2,1,,3,4,2h[8:1],5,5,,46,,2,,
7,8,,6,5,,7,8,7v4[8:1],1,1,,3,,3,,
2,3,,6,4,,5,3,7h[8:1],4,4,,53,,2,,
7,5h[384:1],,2,4h[384:1],,8,5h[384:1],,,4h[384:1],,{32}6/2h[8:1],5,4,3b,,,,,
{16}
8,2,7,1h[16:6],,5,,7,,3,,14,5,6,7,,
2,5,4,7,,75,,78,,73,,5,1b,,,,
4,6,3,5h[16:6],,1,,3,,7,,58,1,2,3,,
7,1,8,3,,5,,5,1,8,3,4,1,8,5,6,
3,8,2,7h[16:6],,8,,5,,2,,75,4,3,2,,
7,4,5,2,,24,,21,,26,,4,8b,,,,
6,4,5,3h[16:6],,1,,7,,5,,31,8,7,6,,
1,5,2,5,3,5,4,5,2,4,3,5,4,6,5,7-3[8:1],
{16}
,,2,,,5-1[8:1],,,6,,,3,,,8,,
{8}6h[4:1],,4,,35,,1-6[8:1]/7,,
4h[4:1],,2,,35,,6p3[8:3]/8,,
4h[8:2],,,,24,
1h[8:2],,8V25[16:5],
4,,3,,
{16}
46,,3,5,3,,46,,
{16}
7h[8:2],,,,5,,,,64,,7h[8:1],,1h[8:1],,4h[8:1],,5-2[8:1],,,,7,,,,46,,,,
{16}
1,,,,42,,5,,6/4h[4:1],,,,8q5[4:1],,,,2,,,,1,,2,,35,,4,,6h[16:4],,4,3,2,,7,,
{16}
3h[8:1],,6,,2h[8:1],,4,,3h[8:1],,5,,2,1,2,2,
7h[8:1],,4,,8h[8:1],,1,,7h[8:1],,5,,6h[8:1],,3,,
8h[8:1],,2,,7h[8:1],,1,,6h[8:1],,8,,5,2,6,6,
4h[8:1],,7,,3h[8:1],,6,,2h[8:1],,5,,1h[8:1],,4,,
{8}
8h[8:1],6pp2[2:1],3h[8:1],,3h[8:1],,5h[8:1],,
{16}
,,6-2[8:1],,,7,,,8-4[8:1],,,2,,,7,,
5s1[8:10],,,,
,,,,
,,,,
,,,,
4h[24:20],,,,
,,,,
,,,,
{24}
,,,37,26,15,
{4}
8z4[8:4]/4,,,,
{16}
6,4,,4,6,,6,2,,2,8,,1,7,1,6,
{32}
{16}
2,4,3,5,4,6,3,5,4,6,5,7,2,1,2,,
7,5,6,4,5,3,6,4,5,3,4,2,7,8,6,,
1,4,2,5,3
,6,2,5,3,6,4,7,2,1,3,,
7,8,,2,1,,7,8,,2,1,3,5,,5,5,
{16}
4,6,4,6,3,5,3,5,2,1,2,8,2,7,2,6,
3,5,3,5,2,4,2,4,1,8,1,7,1,6,1,5,
2,4,2,4,3,5,3,5,4,6,4,7,4,8,4,1,
{16}
5b,,7,8,,2,8,3,7,4,6,,1,,1,,
15,26,37,48,,73,62,51,48,,
37,,26,37,48,5h[16:5]/1,,
,,,
{8}
4h[4:1],,2,2,
{32}6>3[8:31],,,,,,,,
{4}
8b,,,,,,,,
,,,,
,,,,
6<3[8:16],,4,,
6h[4:1],,5,,
5h[4:3],,4,
{16}
6,7,8,1,
{16}
2b/6b,,
,,,,,,
17,,,38,,,4,6,
{16}
3,5,3,5,3,5,3,5,
1,8,1,7,
1,6,1,5,
2,8,2,8,2,8,2,8,
1,5,3,5,1,7,3,7,
{16}
2,4,2,4,3,5,3,5,4,6,4,6,5,7,5,7,
8,6,8,6,1,7,1,7,
{12}2h[384:1],4h[384:1],5h[384:1],7h[384:1],1h[384:1],4h[384:1],
{16}
2,5,4,5,
8,5,4,5,
2,5,4,5,
8,5,4,5,
2,6,4,6,
8,6,4,6,
2,7,4,7,
8,7,4,7,
3,1,3,1,2,7,2,7,
{16}
3,5,3,7,4,7,2,4,1,7,1,7,1,7,8,8,8b,,,6b,,,3b,,
{16}
2,4,3,5,4,7,8,6,
1,7,5,8,4,6,5,7,
2,4,3,5,4,7,8,6,
2,,35,,7/8,,4b/6b,,
7,5,6,1,4,3,7,4,
1,2,6,8,5,3,7,4,
5,2,6,1,8,5,6,3,
7h[8:1],,
{24}
1,2,3,4/6,,,
{16}
3b/7b,,
2,8h[384:1],3,5,1h[384:1],6,4,5,
1h[384:1],6,4,8h[384:1],3,8h[384:1],4,6,
3,8h[384:1],4,6,1h[384:1],5,3,6,
1h[384:1],5,1h[384:1],4,1h[384:1],8h[384:1],3,,
{16}
7,7,6,5,5,,2,2,4,3,5,,
4b/7b,,1b/2b,,
38,38,3,3,,
26,62,62,26,,
48,,{12}62,7qq4[12:35]/3,8/4qq5[12:34],,,
,,,,,,,,,,,,,,,,,,,,,,,,,,,,,,,,,,,
E
