&title=アンヘル
&artist=かいりきベア
&first=1.44
&des=71nG
&lv_5=13+
&inote_1=
&inote_5=(184){4}2h[16:7]/6z2[1:4],,,{32},,,2h[16:7],,,{8},,,,,,3h[16:7],,,,,,{32},,3h[16:7],,,,{8},,,,,,4h[16:7],,,,,,,4h[16:11],,,,{16},,,6,6,5,5,7-3[8:1],,,,
{8}4-1[8:1],,5,,6h[8:1],8-4[8:1],,3V52[4:1],,6,7h[4:3],,1,8,1,8,1-5[8:1],,8,,7h[8:1],5-1[8:1],,6V47[4:1],,2,3h[4:3],,8,1,8,1,8-5[8:1],,3-8[8:1],,7,7<4[8:1],,7>2[8:1],,3,3h[4:3],,5,4,5,4,5>2[8:1],,8<5[8:1],,1,1w5[8:1],,1,,37,1,8h[16:1],37,26,37,26,
1h[4:1],,3pp6[8:3],,1,1,2,,3h[4:1],,4qq8[8:3],,5,5,6h[8:9],,1,1-7[8:1],,1-5[8:1],,1-3[8:1],,1,,7,7,7,6h[4:1]/5,,4-8[8:1],,,,6pp1[8:3],,1,2,3,,4h[4:1],,8qq4[8:3],,4,3,2h[8:9],,5,5-3[8:1],,5-1[8:1],,5-7[8:1],,5,,2,3,4,5-2[8:1]/7-4[8:1],,,,1q5[8:1],,8,,7,7V51[4:1],,2,,2-4[8:1],,8,7<5[8:1],7,3>1[8:1],3,7q3[8:1],,2p6[8:1],,5,5h[2:1],,6,6,6,,1h[4:1],,{16}8,8,2,,7,,
{4}4bq5[2:7]/6b<3[4:6],,,,,,,,3>6[4:6],,,,,,,,{6}7h[6:1]/4h,5h[6:1],6h[2:1],1h,2h,3h,{24}4h/7h[6:1],,,,5h,,5h,,5h[2:1],,,,{6}8bh,7bh,6bh,4h[6:1]/3h,2hh[6:1],1h[2:1],2h,3h,4h,8b-6[8:1],1b-5[8:1],2b-4[8:1],8bh,1bh,2bh,7h[6:1],5h[6:1],6h[2:1],1h,2h,3h,4h/7h[6:1],{24}5h,,5h,,{6}5h[2:1],8bh,7bh,6bh,4h[6:1]/3h,{12}2h,3h,{6}2h[2:1],4h,5h,6h,1b-3[8:1],8b-4[8:1],7b-5[8:1],1bh,8bh,7bh,
{8}2<7[2:1]/6q3[2:1],,,,,,,,48,37,48,37,1-5[8:1]/5,,6-2[8:1],,
3b-7[8:1]/6b,,83,,8h[4:1],{16}4v7[8:1],3,2,,4,,{8}1<6[8:1],1,2p8[8:3],,3h[4:1],,,,4h[8:1],{16}1,2,1,,83,,74,,6,5,6-1[8:1],,4,,3-8[8:1],,,,7-4[8:1],,,,2-5[8:1],,,,1<6[8:1],,,,4bqq2[8:1]*v7[8:1],,,,4,,,,6h[4:1],,4,3,2>5[8:1],,7,,2<7[8:1],,,,2qq5[8:3],,,,3h[4:1],,,,,,,,2h[8:1],,7,1,7,,26,,5h[8:1],,3,4,3,,2b/5b,,,,78,,16,,25,,4-7[8:1]/3-8[8:1],,,,,,,,
{4}6h[2:7]/2xh[1:2],,,,,,,,,,,,,,{8}8xb,1xb/7b,2xb/6b,3xb/5b,4xv1[8:1],,5pp4[8:3],,,,2,,3xv8[8:1],,4pp3[8:3],,,,1,,2xv7[8:1],,3pp2[8:3],,,,8,,1xv6[8:1],,2pp1[8:3],,,,7,,6xv8[8:1],,1pp1[8:3],,,,6,,5xv7[8:1],,8pp8[8:3],,,,5,,4xv5[8:1],,7pp6[8:3],,,,4,,3xv4[8:1],,6pp5[8:3],,3,3,2,2,
{16}1h[8:1],,4,3,4h[8:1],,2,5,3,6,4h[4:1],,8,,7h[4:1],,,,5,5,6h[8:1],,4,4,7h[8:1],,5h[8:1],,1h[8:1],,3h[8:1],,8x,,7,2,8,3,1,4,7h[8:1],,6h[8:1],,5h[8:1],,4h[4:1],,,,6,5,6,5,6h[8:1],,1,,34,,1,,34,,6xh[8:1],,5,4,3,,7,,12,,8,,3,4,3h[4:1],,,,8,,57,,46,,3,5,2,6,1h[8:1],,7h[8:1],,2x,,3,6,4h[8:1],,2,,1,3,8,2,7h[8:1],,1h[4:1],,,,7,6,5h[8:1],,2h[8:1],,3,3,4,4,5,,6xh[8:3],,,,,,E5,,,,
{4}4pp6[2:1]/5qq3[2:1]b,,,,{8}18,18,27,2-5[8:1]/7v4[8:1],,,,,{4}6p3[8:25]`3q6[8:25],,,,,,,,,,,,,,{16},,1,8,{4}27,34,34,56,56,78,78,12,12,{8}1,2,3,4,5,6,7,1s5[4:7]/8,,,,,,,,,,,1,1b-5[8:1]b,,,,,4-8[8:1]b,,4-2[8:1]b,,
4-6[8:1]b/7,,14,,2h[8:1],{16}8,3,1-5[8:1]b,,2,,{8}1xb/2xb-6[8:1]b,,2xb/3xb>5[4:1]b,,3bx,,8,,7h[8:1],{16}5,5,5,,46,,28,,1,1,1,,28,,{32}1b/A7f,D7,A6,,,,,,8b/B2f,B3,B4,,,,,,1b/B7f,B6,B5,,,,,,8b-5[8:1]b/A2f,D3,A3,,,,,,{8}8/1-4[8:1]b,,81,,7<4[8:1]b,{16}1,8,2v8[8:1]b,,{8}2,2xbv4[8:1]b,,2xb/3xb-1-7-5[4:1]b,,3xb,,1,,7h[8:1],{16}8,8,8,,7,,{8}65,4,3h[8:3],1b,,8-4[8:1],2-6[8:1],8,2,,5h[8:3],1b,,2-6[8:1]b,8-4[8:1],2,8,,3h[8:3],8b,,7b-3[8:1]b,1b-5[8:1]b,7b,1b>4[8:1],,1bpp8[4:3]b/7,6bqq7[8:5],,,,,,,,,E1/E2/B1,,A6/E7/B6,,A4/D4/E4,E1/B7/B8/A8,,B3/B2/E3,,7xpp1[8:1]/2xqq8[8:1],,,,E8,
