&title=Ex-Otogibanashi
&artist=ryo
&first=0
&des=luvlily
&lv_5=13+
&inote_5=(190){1},
{16},,,,,,,,1b,,,,,,,,
{16}2-8-3-7b[2:1]/8xh[4:3],,,,,,,,,,,,,,,,
{16}8-3-7-4[2:1]/6xh[4:3],,,,,,,,,,,,,,,,
{16}3x-7-4-6b[2:1]/7x-3-8-2[2:1],,,,,,,,,,,,,,,,
{16}E3hf[1:1],,,B3hf[1:1],,,Chf[1:1],,,B7hf[1:1],,,E7hf[1:1],,,,
{16},,,,,,,,,,,,,,,,
{16}1x/8x,,,3x/4-1b[16:7],,,5-8[16:4]/6x,,,,,,,,,,
{16}2bqq7[1:2]/7b,,,,,,,,,,,,,,,,
{16},,,,,,,,,,,,,,,,
{16}D3,,,,,,D2,,,,,,D1,,,,
{16},,D8,,,,,,D7,,,,,,,,
{16}6xqq3[1:2]/3x,,,,,,,,,,,,,,,,
{16},,,,,,,,,,,,,,,,
{16}E7,,,,,,E6,,,,,,E5,,,,
{16},,E4,,,,,,E3/8xh[4:1],,1xh[8:1],,,,,,
{16}7x,,7h[4:3],,,,6,,,,4,,,,2,,
{16}8x,,8h[4:3],,,,7,,,,5,,,,3,,
{16}1x,,1h[4:3],,,,8,,,,6,,,,4,,
{16}2x,,2h[4:3],,,,1,,,,7,,,,5,,
{16}3x/4x,,3h[8:1],,5,,3h[8:1],,2,,3h[8:1],,4,,3x,,
{16}6x/5x,,6h[8:1],,4,,6h[8:1],,7,,6h[8:1],,5,,6x,,
{16}1x,2,3,4,7x,6,5,4,2x,3,4,5,8x,7,6,5,
{16}3xb,4,2,5,1pp3[4:1],6^4[16:3],8,7,,,,,,,,,
{16}1bh[2:1]/6,,,,,,,,B5/E5,,,,1q7^8-4[4:3],,,,
{16},,,,,,,,,,,,,,,,
{16}8xh[2:1]/3,,,,,,,,B4/E5,,,,8-2-4-6[8:7],,,,
{16},,,,,,,,4x-1[8:1],,,,,,,,
{16}6xpp7^2[4:5]/3x,,,,,,,,B4/E4,,,,,,,,
{16}B5/E6,,,,,,,,3b,,,,,,,,
{16}1x^3q8[1:1]/4xp7^5[1:1],,,,,,,,,,,,,,,,
{16},,,,,,,,1x^4b[8:1]/5x^8b[8:1],,,,,,,,
{16}3-6[4:1]/7,,,,6-1[4:1],,,,1-4[4:1],,,,4,,,,
{16}7-2[4:1],,,,2-5[4:1],,,,5-8[4:1],,,,8,,,,
{16}2-5[4:1],,,,5-1b[4:1],,,,1-6[4:1],,,,8,,,,
{16}7>3[4:1],,,,3<7b[4:1]*V57[4:1],,,,,,,,,,,,
{16}75,,7,,35,,3,,8-5[8:1]/5-2[8:1],,,,8x/5x,,,,
{16}2x/4x,,2x,,64,,6,,1^4[8:1]/4^7[8:1],,,,1x/4x,,,,
{16}5x,7x,5x,7x,4,6,4,6,3,5,3,5,2,4,2,4,
{16}1xb/5x,,6x/2b,,7x/3b,,8x/4b,,{48}E1f/E5,B7,B3,A6,A2,,{16},,,,,,
{16}5b-1-7[4:1]/1b,,,,53,,2-6[8:1],,,,4-7[8:1]*-1[8:1]/2,,,,4,,
{16},,8-4[8:1],,4^7[8:1]*^1[8:1],,8,,A4f/E5/E4,,,,8x-4[8:1],,1,,
{16}2>7[4:1]/8,,,,6,,1v4[8:1]*v6[8:1],,,,1,,,,2/8qq7[4:1],,
{16},,3,,2^4[8:1],,1,,8bx,,,,7,1,7,1,
{16}2b-6-4[4:1]/6x,,,,28,,7-3[8:1],,,,1-5[8:1]/7-5[8:1],,,,1/7,,
{16},,2V47[4:1],,4-1b[8:1],,2,,A4f/E4/E5,,,,2-5[8:1]/8-4[8:1],,3,,
{16}2^8[8:1]/8,,,,2-6[8:1]/7-4[8:1],,6,,27,,,,8,,2xb/E6/A5/B5/D6f,,
{16},,7xb/E4/A4/B4/D4f,,,,1,,2b/8b,,,,3,6,3,6,
{16}4xq1^3[16:5]/5xp8^6[16:5],,,,D5f/A5/A4/D6/D4/E5/B5/B4/E6/E4,,,,,,,,2x/6x,,2-5[8:1]/6,,
{16},,8-4[8:1],,7,,3,,1,,,,1v4[8:1]/7v4[8:1],,26,,
{16}1^2-4-6^7[4:1]/7,,,,8,,8h[4:1],,,,1x-5[8:1],,,,7-4[8:1],,
{16},,1-5[8:1],,2,,6,,8,,,,6,2,6,2,
{16}7b-3-5[4:1]/1x,,,,78,,2-6[8:1],,,,8q5[8:1]/2-5[8:1],,,,8/2,,
{16},,7-4-1[4:1],,4-8b[8:1]*-1[8:1],,7,,A4f/E4/E5,,,,2-8[8:1]/7-1[8:1],,36,,
{16},,,,3/6<3[4:1],,45,,E7,E8,E1,E2,E3f,,,,
{16}6b,5,6,5,7,,7,,3b,4,3,4,2,,2,,
{24}17,26,35,{16}4bw8[8:1],,,,4b,,,,,,2v3-5b[3:1]/6v7-1[3:1],,15,,
{16},,,,,,A6,A7,A8,A1,A2,A3,4bx/5bx<4[1:2],,,,
{16}Cf/E5,,,,,,,,,,,,,,,,
{16},,,,,,,,,,,,,,,,
{16}6p4[2:1],,,,,,1,,1,,,,,,,,
{16}2h[16:3],,,3h[16:3],,,4,,4-1[8:1],,,,5-8[8:1],,,,
{16}6p4[2:1],,,,,,1,,1,,,,,,,,
{16}2h[8:3],,,,,,5,,3v5[8:1]/7v5[8:1],,,,3x/7x,,,,
{16}6p4[2:1],,,,,,1,,1,,,,,,,,
{16}3,,3,4,,6,5,,4bz8[8:1]/5bs1[8:1],,,,,,,,
{16}2h[4:1]/6,,,,1h[4:1],,,,4,,4,,7,,8,,
{16}6h[8:1]/1h[8:1],,,,5h[8:1]/2h[8:1],,,,4h[8:1]/3h[8:1],,,,54,,6,,
{16}7h[4:1]/3,,,,8h[4:1],,,,5,,5,,2,,1,,
{16}3h[8:1]/8h[8:1],,,,2h[8:1]/7h[8:1],,,,1h[8:1]/6h[8:1],,,,7/8^3[8:1],,,,
{16}D1f/6,,6,,6,,6,,57,,5,,1x^6[8:1]/4x,,4,,
{16}D1f/3,,3,,3,,3,,42,,4,,8x/5x,,5,,
{16}1,7,1,7,3,4,3,4,2,8,2,8,5,6,5,6,
{24}4x,3,2,1,8,7,3x,2,1,8,7,6,2x,1,8,7,6,5,{64}A4,D4,A3,D3,A2,D2,A1,D1,
{64}A8,D8,A7,D7,A6,D6,A5,D5,
(124)
{16}B1/B8/B7/B6/B5/B4/B3f,,,,,,,,,,,,,,,,
(94){16}D3h[64:51],,A3h[64:43],,D4h[64:35],,A4h[64:27],,(80){16},,,,,,,,
(87){16}D7h[64:45],,A6h[64:37],,D6h[64:29],,A5h[64:21],,(79){16},,,,,,,,
(65){16}E4h[64:61],,B4h[64:54],,B5h[64:47],,E6h[64:40],,,,,,,,,,
{16}Ch[16:15],,,,,,,,,,,,,,,,
{16},,,,,,,,,,,,,,,,
{16},,,,,,,,,,,,,,,,
{16},,,,,,,,,,,,,,,,
{16},,,,,,,,,,,,,,,,
{16},,,,,,,,,,,,,,,,
{16},,,,,,,,,,,,,,,,
{16},,,,,,,,,,,,,,,,
{16},,,,,,,,,,,,,,,,
{16},,,,,,,,,,,,,,,,
