&title=SeventH-HeaveN 2020-2021
&artist=sasakure.UK feat.初音未来
&first=0.01
&des=For 7th HeaveN
&lv_5=14
&inote_5=(180)
{1}
,,,,,,,
{8}
5,4,3,2V47[8:7]/1V37[8:7],,,,,,,,,,,,,
4h[8:3]/E8/B7/A7,,,,,,5h[8:3]/A1/E2/E1,,,,,,C,,,,
4,5,6,7V52[8:7]/8V62[8:7],,,,,,,,,,,,,
5h[8:3]/E2/B2/A2,,,,,,4h[8:3]/A6/B6/E6,,,,,,E1,,,,
3x,,5,4,3,,4,3,2,,5,4,3,,
6,5,4-1[8:1],,7,6,5,,
5,4,3/6qq8[16:8],,,,,,,,
3x,4,5,6,4,5,6,7,3,4,5,6,
4,5,6v1[8:1],,5,4,3,2,1,8,7s3s7[8:7],6,,,,,,,,,
4b,,4,5,4,6,4,7-5v2[2:1],4,,4,,4,,4,,
4/2,,4,3,4,5,4,6V48[8:3],,2-5-1[8:3],,,,,
,6,6-1[8:1],,3,3-5[8:1],,8h[4:1],,6h[4:1],,4h[4:1],,
3,4x>1[8:1],5,4,6,7x<4[8:1],8,7,1,2x<7[8:1],3,2,,
6x/5x<4[8:4],,,,E1,C,E5,,
3x/7x,,7,5,7,E4,7,B1,7,E5,7,4x>1[4:1],7,,7,,
6/8,,6,{32}B1,E2,,,{8}6,{32}E3,B3,,,{8}6,5x-1-3[16:6],,7-4-8[16:6],,,,,
,3,3-8[8:1],,6,6-4[8:1],,1h[4:1],,3h[4:1],,5h[4:1],,7q3[32:6]*qq5[32:6],,,,,
1x/4xh[4:1],2,3,4xh[4:1]/5x,6,7,8x/5xh[4:1],7,6,5xh[4:1]/4x,3,2,
4x/1xh[4:1],3,2,1x-5[8:1]/8x-3[8:1],,,,
4x/6xh[4:1],,5,7hx[4:1]/4x,,6,8hx[4:1]/5x,,
7,1xh[4:1]/6x,,8x,2x/7x,3x>6-1<8-3[2:3]/6x,,
E5h[2:3]/B5h[2:3]/B4h[2:3],,,,,,,,,,,,
(90)
{16},,,,,
(180)
{8}
5b-1[8:1],,6/5,,
72,8/3h[4:1],,2<5[4:1],,5,4,3,2-5[8:1]/4-8[8:1],,2b/4b,,
7,6h[4:1],5,4,3,2h[4:1],1,8,7<4[8:1],4pp3[16:5],3,2h[4:1],,,,
1,1>8[8:3],,6-8-4[4:1],6,,,,26,,
3p7[8:1]/7p3[8:1],,3<6[8:1]/7>2[8:1],,,,
8,8<1[8:3],,3V15[4:1],3,,,,8/3,,6<3[4:1]/2,,
{16}E7,E8,E1,E2,E3,,,,4x/5x,,4bx-8[8:1]/5bx-1[8:1],,,,4/5,,,,
7/3,,7-5[8:1]/3-1[8:1],,,,7v4[8:1]/3v8[8:1],,,,7/3,,,,
1x/5x,6x/2x,7x-4b[8:1]/3x-8b[8:1],,,,3b/7b,,,,
2,,3h[4:1],,4,,5,,6,,7h[4:1],,8,,1,,2>5[8:1],,5qq6[16:5],,6,,7h[4:1],,,,,,,,
8,,8<1[8:3],,,,3V16[4:1],,3,,,,,,,,1/4,,,,
6pp8[8:1]/2<8[8:1],,,,2pp4[8:1]/6>4[8:1],,,,,,,,
7x/2x,,2xh[4:1]/7x,,,,4,,5v2[8:1],,,,6/5<3[16:6],,,,1>5b[4:1],,,,5<1b[4:1],,,,
E1,E2,E3,E4,E5,E6,E7,E8,E1,E2,
{16}
E3f/B3/A3/D3/5xh[8:7],,,,,,,,,,,,,,
E8h[8:3]/B7/B8/D8,,,,,,E5h[8:2]/B5/B4/D5,,,,
B1/B2/E2h[8:3]/D2,,,,,,B6h[8:7]/B7/B5/A6,,,,,,,,
B2h[8:3]/B3/B1/A2,,,,,,,,,,
4xh[8:7]/A8/E1/E8/B8f,,,,,,,,,,,,,,
E2h[8:3]/B2/B1/D2,,,,,,E5h[8:2]/B4/B5/D5,,,,
B8/B7/E8h[8:3]/D8,,,,,,B3/B2h[16:16]/B4h[16:18]/A3h[16:14],,,,,,,,
B7/B6h[16:9]/B8h[16:10]/A7h[16:7],,,,,,,,,,
(90)
{4},
(180)
{8}
3bx<2[2:3]/6xhb[2:1],,,,,,,,4h[2:1],,,,,,,,
4<3[2:3]/3h[2:1],,,,,,,,5h[2:1],,,,,,,,
4h[4:3]/5,,6,6,E1/B8,,,,4h[4:3]/3,,2,2,B7/E8,,,,
4h[4:3]/5,,6,6,E1/B1,,,,4h[2:1]/3,,3<4-1[16:5],,,,,,
8xz4-2-5[4:6]/6xh[2:1],,,,,,,,1,,8,,7,,,,
1s5-7-4[4:6]/3h[2:1],,,,,,,,8,,8-3[4:1],,,,,,
5h[4:3]/4,,3,3,E1/B1,,,,5h[4:3]/6,,7,7,B2/E2,,,,
5h[4:2]/3,,2,1,8>3[4:1],,3,,8<5[4:1],,5-2b[4:1]*-1b[4:1],,,,,,
{16}
3/4,,,42,,,1h[16:6]/5h[16:6],,,,,,,,1qq1>4[16:6]/5qq5<8[16:6],,,,,,,,,,,,,,
81,,,,5/6,,,6/4,,,3h[8:3]/7h[8:3],,,,,,,,7pp8<5[8:3]/3qq2>5[8:3],,,,,,,,,,,,,,
3/7,,,,E2,,6,,5,,E1,,5,,6,,E8,,6,,5,,C,,5,,6,,B3,,,,45,,,,
E2,,4,,3,,E1,,3,,4,,E8,,4,,3,,E1,,3,,4,,A1,,,,3/7,,,,
2/1,,,2/8,,,3h[8:3]/7h[8:3],,,,,,,,7/3pp8>2[16:7],,,,,,,,,,,,
6-8[8:1],,6,,,,,,3-5[8:1],,3-1[8:1],,,,,,6,,7s3[8:5],,
{8}8xh[4:1],,,1xh[4:1],,,2xh[4:1],,,
{16}3xb/4xb,5x,6x,7x,8x,1x,
(170)
{16}3bx,4x,5x,6x,7x,8x,
(160)
{16}2bx,3x,4x,5x,6x,7x,
(150)
{16}1bx,2x,3x,4x,5x,6x,
(130)
{16}7bx,1x,6x,2x-6[1:3],5x,3x,
(115)
{1},,,
{4}45,A3,E5,A6,E8,A1,A6,C,A2,A6,E5,A3,
{4}
E1/E8/B7/B8f,A3,E5,A6,E8,A1,A6/E4/B4f/B3/A3,C,A2,A6,E5,A3,
5<1[8:5]/A2f,A3,E5,A6,E8,A1,A6f/4q1[8:5],C,A2,A6,E5,A3,
E1f/E2/E8/A8/A1,A3h[4:1],E5h[4:1],A6h[4:1],E8h[4:1],A1hf[4:1],E3h[4:1],A4h[4:1],
E6h[4:1],A7h[4:1],E1h[4:1],
{48}
E3h[12:1],,,,E4h[12:1],,,,A4h[12:1],,,,
B1h[12:1],,,,Ch[12:1],,,,B5h[12:1],,,,
E8h[12:1],,,,E7h[12:1],,,,A6h[12:1],,,,
A1h[48:5],,,,,Ch[48:5],,,,,A5h[48:5],,,,,
(90)
{32},,,,,,,,,,,,,,34,,
(180)
{8}
2x,2x<7[8:1],,6>3[8:1],,8,1,2V84[4:1],,4-2[8:1],5,6-1[8:1],,
6bpp5b[2:1]/1bpp4[2:1],,,,,,,
2,3,46,7,8x,8x<5[8:1],,3>8[8:1],,4,5,6V48[4:1],,
8V62[4:1],1,2bqq7b[2:1]*pp6b[2:1],,,,,,,{16}D5,D4,D3,D2,D8,D7,D6,D5,1xh[4:1],,,,
4x-8[8:1],,,,4/1v3[8:1],,,,1/7v5[8:1],,,,7/4,,,,2x-6[8:1],,,,
8-4[8:1]/2,,,,4V68b[8:1]*V28b[8:1]/8,,,,,,,,
E2,B8,B4,E6,2x-6[8:1],,6x-2[8:1],,,,,,,,
8,,8x-4[8:1]/4x-2[8:1],,,,84,,,,1x-5[8:1]/5x-7[8:1],,,,1/5-3[8:1],,,,
8x-5[8:1]*-3[8:1],,,,8<1b[8:3],,,,Cf,,,,,,,,
8x,,7x/5x,,6x/4x,,3x/5x,,{16}2x,4,2,4,2,4,2,,
{8}
2x-5[8:1],5,2,7x-4[8:1],4,7,2x-5[8:1],5,2,6x-8[8:1],4,6,
2x-5[8:1],5,2,8xv6[8:1],4,8,2x-5[8:1],5x-2b[8:1],2b,,
7x<6-4[8:1],8,1,2x<1-7[8:1],3,4,5x>4-2[8:1],6,7,
8x<7-5[8:1],1,2,
3hb[4:7],,4xq7>5[16:16],,,,,,,,,,,,
7h[4:7],,8q3>8<5[16:16],,,,,,,,,,,,
4h[4:7],,5<7>1>3[8:5],,,,,,,,{16}E5,E6,E7,E8,E1,E2,E3,E4,
{8}5xh[4:6],,4x>3>2<1<8<7<6[16:10],,,,,,,,
{16}4x,3x,2x,1x,8x,7x,6x,
5x-3>2-8<7-5>4-2<1-7<6-4>3-1s5[16:121],
{1}4bx-2<1-7<6-4>3-1<8-6>5-3>2-8z4[16:120],,,,,,,{4},,,
(90)
{4},,{8},,
(180)
{16}
3,,4,,5,,6h[8:9],,,,,,,,A7,E7,E6,,,,,,A1,E2,E3,,,,,,,,
3,,4,,5,,6h[8:8],,,,,,,,E8,E1,E2,,,,,,E4/D4,,,E5/D5,,,E6/D6,,,,
3,,4,,5,,6h[8:5],,,,,,,,B1,B2,E3,,B4,,B8,,E7,,,,B1/C/B5,,,,,,
6,,5,,4,,3h[8:5],,,,,,,,B8,B7,E7,,B5,,B1,,E3,,,,B8/C/B4/A8/A4,,,,,,
2h[4:1]/6h[4:1],,,,,,3h[4:1]/7h[4:1],,,,,,4>1[4:1]/8<5[4:1],,,,,,,,,,,,
87,,,,1/6,,,,2h[4:1]/5h[4:1],,,,,,3h[4:1]/6h[4:1],,,,,,
7<4[4:1]/4>1s5[8:5],,,,,,,,,,,,,,,,4x/6x,,,,
3h[4:1]/7h[4:1],,,,,,2h[4:1]/6h[4:1],,,,,,
B5h[8:24]/A5h[8:24]/1<6q4[4:3],,,,,,,,,,,,,,,,,,,,
2-4-8-6z2[4:5],,,,,,,,,,,,,,,,,,,,,,,,,,,,1b,,,,
2-6[8:1]/7-1[8:1],,,,27,,,,8x/5x,,4h[4:1]/7,,,,
2<5[4:1],,,,5,,4,,3,,2-5b[8:1]/4-8b[8:1],,,,{32}B4,Cf,B8,,,,,,
{8}7x,6xh[4:1],5,4,3,2h[4:1],1,8,7<4[8:1],4pp7[16:5],3,2<8[8:1],,,,
1x,1x>4[8:1],,5p8[6:1],7-3[8:1],,7,,14,,
3p7[8:1]/7p3[8:1],,7>2[8:1]/3<6[8:1],,,,
8x,8x<5[8:1],,4pp5[4:1],2-5[8:1],,2,,
1x-4[8:1]/8x-5[8:1],,1/8,,{16}3,6,3,6,2,7,2,7,1,8,
{8}2b-5[8:1]/7b-4[8:1],,2/7,,4x/5x,4x-7[8:1]/5x-8[8:1],,
4-1[8:1]/5-2[8:1],,4/5,,{16}7x/8x,1x/6x,5x<8b[8:1]/2x>5b[8:1],,,,2b/5b,,,,
{8}3x,2xh[4:1],1,8,7,6h[4:1],5,4,3>8[8:1],8pp3[16:5],7,6>4[8:1],,,,
5x,5x<8[8:1],,1p4[6:1],3-7[8:1],,3,,85,,
6pp8[8:1]/2<8[8:1],,2pp4[8:1]/6>4[8:1],,,,
2xqq5>2[8:5]/6x,2xb/6bxqq1b<6b[8:4],,,,,,,
{16}1x,5,1,5,2,6,2,6,3,7,3,7,4,8,3,7,2,6,
{8}1b-4[8:1],,1/5-8[8:1],,6/5,,1,3/7h[4:1],,
5-8[8:1],4,5/3h[4:1],,1-5-7[4:1],3,1,
2,2V48[4:1],8,2,,7-3[8:1],6,7/5h[4:1],,
2-7[8:1],6-3[8:1],2x-5[8:1],6x-1[8:1],2x,6x,,
7x/8x-5[8:1],,8/4-1[8:1],,3/4,,8,6/2h[8:2],,
4-1[8:1],5,6h[4:1]/4,,7-4[8:1],8,7/1h[4:1],,3-7[8:1],5,3x/6xh[4:1],,
8<5b[8:1]*>3b[8:1],4,8b,,
1,2/7,3/6,
{16}4,5,4,5,3qq8[8:3],4,3,4,3b,,,,
{8}
7,6,5x/1xh[4:1],,4,7h[4:1]/3,,1,2/7,36,
{16}
4,5,4,5,3qq8b[8:3],4,3,4,3b,,,,
{8}
7,6,1x-5[8:1]/5x,,2/1,4-8[8:1],,4/5,6,7b-2[8:1]*-4[8:1],,7b,,
1x/5x,3b/7b,,
4,3-5[8:1],1x/2x,3,6,7-4[8:1],1x/8x,7,2,1-5[8:1],8x/7x,1,
6,7,8x-5[8:1]/4x,3-7b[8:1],8,3,6x-3b[8:1],1-5[8:1],6,1,
8x-3[8:1],2x-6b[8:1],8x-5[8:1],2x,8x>4b[8:1],4x<8b[8:1],
{64}A8f,D1,A1,D2,A2,D3,A3,D4,A4,D5,A5,D6,A6,D7,A7,D8,
{8}1xhb[4:1],,8x,8x>3b[8:1],,7/8,5<8b[8:1],,4/5,2>5b[8:1],,2/1,
7b>2b[8:1],,7/6,4<7[8:1],,3/4,1>4b[8:1],,1/8,6<1[8:1],,5/6,
3b-8b[8:1],,4/3,5-2[8:1],,5/6,7-4[8:1],,7/8,1-6b[8:1],,2/1,3b-5[8:1],,
3,1-3[8:1],,1,7-1[8:1],,7,5,,65,
E3f/A2/A3/D3/8bxz4[1:1],,,,,,,,,,,,5xq5pp5b[4:5],,,,,,,,,,,,
4x-1>2-7[1:1],,,,,,,,,,,,8x-4qq2[1:1]/1x-5pp7[1:1],,,,,,,,,,,,
6xpp4[1:2],,,,,,,3xqq5b[8:9],
