&title=Everything B.K.
&artist=nora2r
&first=0.62
&des=Taxchan
&des_5=Taxchan
&lv_5=14
&inote_5=(180){4}1>3[8:1],3,5<7[8:1],7,
1-5[4:1],5-1[4:1],{2}7,
{4}8<6[8:1],6,4>2[8:1],2,
8-4[4:1],4pp8[8:3],{2}2,
{4}2-5[8:1],2/5,6-1[8:1],1/6,
2-7[4:1],7-4[4:1],4,6,
4h[8:1]/5h[8:1],3h[8:1]/6h[8:1],2h[8:1]/7h[8:1],1h[8:1]/8h[8:1],
6b-2[4:1],2<3[8:3],,1-4[8:1],
5h[4:5]/1b-6[8:1],1>4[8:1],1<6[8:1],1-4[8:1],
1-6[8:1],1,{8}5/3,1,5/7-4[8:1],3h[8:11],
{4}7-2[8:1],7<4[8:1],7>2[8:1],7-4[8:1],
7-2[8:1],7,3/8-4[8:1],8/1-5[8:1],
1b/5-1[8:1],1-5[8:1],5-1[8:1],1-5[8:1],
5-1[8:1],1,{8}7h[4:1],8,2h[8:1],1,
{4}3h[8:1]/8h[8:1],{8}6/5,7h[8:1]/8h[8:1],{16},2h[8:1]/1h[8:1],,,{8}3/8w4[1.3333##0.1667],1/2,
{4}8h[8:5]/3h,3h,{8}2h,1h,{4}8,
6b/1b-4[8:1],{8}5/1<6[8:1],5,{16}6/1>4[8:1],,,4,{8}4/1-6[8:1],6,
5/1-4[8:1],5,{4}1/4,{8}3/5,6,2/8-3[8:1],3,
{16}4/8-5[8:1],,,5,{8}5/8>3[8:1],4,{4}3/8<5[8:1],{8}4/8-3[8:1],4,
3/8-5[8:1],4,{4}8/5,6-2[8:1]/2-6[8:1],2/6,
3/5,4/2,3/1,2/8,
7/1,6/8,7/5,4/6,
{16}5,3,7,1,6,4,8,2,5,3,7,1,6/2,7/3,8/4,1/5,
{4}2<2[2:1],,,1,
{8}3b/5b,{16}2,8,{8}2,7-4[8:1],1-5[8:1],7,1,6,
4/7,{16}2,1,{8}2,8-4[8:1],2-5[8:1],8,2,6,
4/8,{16}3,1,{8}3,8-5[8:1],3-6[8:1],8,3,7,
8/4,{16}3,5,{8}3,4/5,{4}4-8[8:1]/5-1[8:1],4/5,
{8}6b/4b,{16}7,1,{8}7,2-5[8:1],8-4[8:1],2,8,3,
5/2,{16}7,8,{8}7,1-5[8:1],7-4[8:1],1,7,3,
5/1,{16}6,8,{8}6,1-4[8:1],6-3[8:1],1,6,2,
7/8,5,7/8,2,7z3[8:1]/8s4[8:1],6/1,{4}7/8,
{8}1b-5[8:1],{16}7,6,{8}5-1[8:1],6,1-5[8:1],7,5,7,
6/4,2,4/6,8,{16}4/6,,,3/5,,1/7,,,{8}8-4[8:1],
2,4-8[8:1],3,8,2,4,3,
4h/6h,3h/5h,2h/4h,1h/3h,{4}8w4[8:1],8,
{8}6b/2b,{16}3,4,{8}3,5,6/4,{16}4,2,,2,{8}4,
3/5,6,7/5,4,5/3,{16}5,3,,3,{8}1,
{16}1,5,1,5,6,2,6,2,7,3,7,3,8/4,7/3,6/2,1/5,
{4}4/8-4[4:1],4>5[8:3],{8},,,,3>6[2:3],
,,6,,5,5,4,
4,,,2,,1-5[8:1],{4}1,
{8}6<3[2:3],,,3,,4,4,5,
5,,,7,,8,{4}8,
{8}1/2,8,4,{16}6,5,,5,{8}6,{4}4/7,
{8}8/7,1,5,{16}3,4,,4,{8}3,{16}5,4,{8}5,
4/3,5,1,{16}7,8,,8,{8}7,{4}1/6,
5/4,{8}7-3[8:1],7,{4}2-6[8:1],7/2b,
5b-7[8:1]/4b-7[8:1],5-2[8:1]/4-2[8:1],5-7[8:1]/4-7[8:1],5-2[8:1]/4-2[8:1],
5-7[8:1]/4-7[8:1],4-2[8:1]/5-2[8:1],5-1[8:1]/4-8[8:1],4/5,
{8}5/4,7/8,4/5,2/1,{16}5,4,7,8,5,4,1,2,
{4}7-3[4:1],3>4[8:3],,3,
5x,5x,{16}5x,,,5x,,5x,,,{4}Ch[8:5],
,,1-5b[8:1]/5<1[4:1],
{32}1bV74[4:1],Cf,,,,,,,{4}4V28[0.3333##0.3333],8xqq4[0.3333##0.5],4x,
,2-6[8:1],2/6,{8}8-4b[8:1]/4>8[4:1],1/5,
{4}8bV25[4:1],5V71[4:1],1xpp5[8:3],5x,
,7-3[8:1],7/3,7pp4[8:5]/2-5b[8:1],
{8}7b/A2f,,,4V62[8:3],{4}3,{8}2-6[4:1],3-5[8:1],
,3,,3,{16}6/2-5[16:1],,,2/7-4[16:1],,,{8}7/3,
{4}1p5[8:1]*q5[8:1],1,{8}7/8,6/5,4/3,2/1,
{4}C,{8}2-6[8:1],2,{4}7-3[8:1],2/7b,
{16}2h[8:1]/4h[8:1],,,3h[8:1]/1h[8:1],,,{8}1/8,{16}7h[8:1]/5h[8:1],,,6h[8:1]/8h[8:1],,,{8}8/1,
{16}2h[8:1]/3h[8:1],,,7h[8:1]/6h[8:1],,,{8}4/5,{4}1xs5[8:1]/8xz4[8:1],1/8,
{16}3h[8:1]/6h[8:1],,,5h[8:1]/8h[8:1],,,{8}1h[16:1]/4h[16:1],5h[16:1]/3h[16:1],7h[16:1]/1h[16:1],{16}2x/6x,2x/6x,{8}2x/6x,
{16}7h[8:1]/3h[8:1],,,1h[8:1]/5h[8:1],,,{8}2h[16:1]/6h[16:1],{4}3x-6[8:1]/4x-1[8:1],3/4,
1x-5[8:1],8-4[8:1],7-3[8:1],6-2[8:1],
5x-1[8:1],4-8[8:1],3-7[8:1],2,
{8}1x/8x,7/2,6/3,5/4,{16}5x,4,6,3,7,2,8,1,
{4}7x-3>4[2:1],,,Cf,
{8}3b/5b,{16}6,4,7,4,{8}6,5/3,{16}4,6,3,5,2,4,
2-5[8:1],1,,1,{8}2,8,4/6,2,5/3
,1/7,
4/6,{16}3,5,2,5,{8}3,4/6,{16}5,3,6,4,7,5,
7-4[8:1],8,,8,{8}7,1,5/3,7,4/6,{16}5,4,
{8}5,{16}2,1,3,8,{8}2,4/5,{16}7,8,6,1,7,2,
6-1[8:1],4,,5,{8}6,3,4/6,1/2,3/5,7/8,
4/5,{16}7,8,6,1,{8}7,5/4,{16}2,1,3,8,{8}2,
{4}8bqq5[8:3]/1bpp4[8:3],,,Cf/B7/B2/B8/B1,
{8}3b/6b,{16}7,5,6,4,{8}5,2h[8:1],{16}3,2,5,4,6,5,
7-4[8:1],8,,8,{8}7,2,3/5,{16}4/6,4/6,,,{8}2/8,
6b/3b,{16}2,4,3,5,{8}4,7h[8:1],{16}6,7,4,5,3,4,
2-5[8:1],1,,1,{8}2,7,{16}7/8,7/8,,2/1,{8}1/2,3/6,
1x/8x,1,1/2,2,2/3,3,3/4,4,
4x/5x,5,5/6,6,{16}6x/7x,,,1x/8x,,,{8}4x/5x,
{16}7,8,6,1,5,2,4,3,1,2,8,3,7,4,6,5,
{4}E8/B8/B1/B7/B6/E6/B5/B4/C,E8/B8/B1/E2/C/E5,B8/E1/B1/C/B5/E5/B4/B7/B6/E6/E8/B2/B3,E8/B7/B6/E6/C/B4/E4/B1/E2,
{1}5b/4b,
E
