&title=まっすぐ→→→ストリーム!
&artist= 曲:本多友紀(Arte Refact)/歌:日向 千夏(CV:岡咲 美保)
&first=-0.066
&des=digitalgroove
&lv_7=狂☆☆
&inote_7=(184)
{4},,,,
{8}1-6[8:1]*-3[8:1],,,,
{16}4,5,4,5,2b/7b,,,,
{16}5bx,6,5,6,5,6,5,6,5,6,5,6,5,6,5,6,
{16}4bx,6,4,6,4,6,4,6,4,6,4,6,4,6,4,6,
{16}4bx,5,4,5,4,5,4,5,4,5,4,5,4,5,4,5,
{16}3bx,5,3,5,3,5,3,5,3,5,3,5,3,5,3,5,
{16}4bx,6,4,6,4,6,4,6,
{16}4bx,5,4,5,4,5,4,5,
{16}3bx,5,3,5,3,5,3,5,
{16}3bx,4,3,4,3,4,3,4,
{16}3bx,5,3,5,3,5,3,5,
{16}4bx,5,4,5,4,5,4,5,
{16}4bx,6,4,6,4,6,4,6,
{16}5bx,7,4,6,3,5,2,4,
{8}2,2,24,4,43,3,35,5,
{8}54,4,46,6,65,5,56,6,
{8}64,4,45,5,53,3,34,4,
{8}42,2,24,4,43,3,35,5,
{8}54,4,46,6,65,5,56,6,
{8}64,4,45,5,53,3,34,4,
{8}42,2,24,4,43,3,35,5,
{8}54,4,46,6,65,54,43,,
{16}2bx,8,2,8,2,8,2,8,
{16}1,8,1,8,1,8,1,8,
{16}1,7,1,7,1,7,1,7,
{16}8,7,8,7,8,7,8,7,
{16}1,7,1,7,1,7,1bx,7,
{16}1,8,1bx,8,1,8,1bx,8,
{16}2,8,2,8,2,8,2,8,
{16}2,1,2,1,2,1,2,1,
{16}2bx,4,2,4,2,4,2,4,
{16}3,4,3,4,3,4,3,4,
{16}3,5,3,5,3,5,3,5,4,5,4,5,4,5,4,5,
{16}4,6,4,6,4,6,4bx,6,
{16}5,6,5bx,6,5,6,5bx,6,
{16}4,6,3,5,2,4,2,4,3,5,4,6,5,7,5,7,
{16}5bx,6,5,6,3bx,4,3,4,3,4,3,4,3,4,3,4,3,5,3,5,3,5,3,5,4,5,4,5,4,5,4,5,
{16}3bx,4,3,4,5bx,6,5,6,5,6,5,6,5,6,5,6,4,6,4,6,4,6,4,6,4,5,4,5,4,5,4,5,4bx,5,4,5,4,5,4,5,
{16}3bx,6,3,6,3,6,3,6,3bx,7,3,7,2bx,7,2,7,2bx,8,2,8,1bx,8,1,8,
{16}2bx,1,2,1,2,1,2,1,2,1,2,1,2,1,2,1,
{16}3bx,8,3,8,4bx,7,4,7,5bx,6,5,6,4bx,5,4,5,
{8}2bx-8v6[8:4]*-4v6[8:4],,,,,,,,4,,4w8[8:1],,4,,3b/6b,,
{16}3,6,3,6,3,6,3,6,3,6,3,6,3,6,3,6,3,6,3,6,3,6,3,6,3,6,3,6,3bx,6,3,6,3,6,3,6,3,6,3,6,3,6,3,6,3,6,3,6,3,6,3,6,3,6,3,6,3,6,3bx,6,3bx,6,3,6,3,6,3,6,3,6,3,6,3,6,3,6,3,6,3,6,3,6,3,6,3,6,3,6,3,6,3,6,3bx,6,3,6,3,6,3,6,3,6,3,6,3,6,3,6,3,6,3,6,3bx,6,3,6,3bx,6,3,6,3bx,6,3,6,3,6,3,6,
{16}3bx,6,3,6,3,6,3,6,3,6,3,6,3,6,3,6,3,6,3,6,3,6,3,6,3,6,3,6,3bx,6,3,6,3,6,3,6,3,6,3,6,3,6,3,6,3,6,3,6,3,6,3,6,3,6,3,6,3,6,3bx,6,3bx,6,3,6,3,6,3,6,3,6,3,6,3,6,3,6,3,6,3,6,3,6,3,6,3,6,3,6,3,6,3,6,3bx,6,3,6,3,6,3,6,3,6,3,6,3,6,3,6,3,6,3,6,3bx,6,3,6,3bx,6,3,6,3bx,6,3,6,
{8}3bx-1v7[8:6]*-5v7[8:6],,,,,,,,,,
{16}4,6,4,6,5,6,5,6,4,6,4,6,5,6,4,6,4,6,4,6,5,6,5,6,4,6,4,6,5,6,4,6,
{16}4,6,4,6,5,6,5,6,4,6,4,6,5,6,4,6,4,6,4,6,5,6,5,6,4,6,4,6,5,6,4,6,
{16}3bx,6,5,6,5,6,
{16}4,5,4,5,3,5,3,5,4,5,4,5,4,6,4,6,4,5,4,5,3bx,6,5,6,5,6,
{16}4,5,4,5,4,5,3,5,3,5,3,6,3,6,4,6,4,6,5,6,5,6,4,5,4,5,3bx,6,5,6,5,6,5,
{16}4bx,5,4,5,4,5,
{16}3,5,3,5,4,6,4,6,5,6,5,6,4,5,4,5,3,5,3,5,3,4,3,4,
{16}5bx,6,5,6,5,6,4bx,5,4,5,4,5,4,6,3bx,5,3,5,3,5,3,5,4bx,5,4,5,4,5,3bx,6,3,6,4bxv6-8[8:3]*v2-8[8:3],,,,,
{8},,,,2b/6b,,
{16}3bx,5,3,5,4bx,6,4,6,3bx,5,3,5,4bx,6,4,6,3bx,5,3,5,4bx,6,4,6,3bx,5,3,5,4bx,6,4,6,
{16}2bx,5,2,5,4bx,7,4,7,2bx,5,2,5,4bx,7,4,7,2bx,5,2,5,4bx,7,4,7,2bx,5,2,5,4bx,7,4,7,
{16}3bx,4,3,4,3,4,3,4,3,4,3,4,3,4,3,4,
{16}5bx,6,5,6,5,6,5,6,5,6,5,6,5,6,5,6,
{16}3bx,4,3,4,3,4,3,4,5bx,6,5,6,5,6,5,6,
{16}3bx,4,3,4,5bx,6,5,6,3bx,4,3,4,2bx,,,,
{8}4bx/6bx,4,45,4,4,64,45,4,46,4,54,46,4,64,54,4,36,3,35,3,3,63,35,3,36,3,53,36,3,63,53,3,
{8}5bx/3bx,5,54,5,5,35,54,5,53,5,45,53,5,35,45,5,63,6,64,6,6,36,64,6,63,6,46,63,6,36,46,6,
{8}4bx/6bx,4,4/5bx,4,4,4,4/5bx,4,4,4,4/5bx,4,4,4,4/5bx,4,
{8}6bx/4bx,6,6/4bx,6,6,6,6/4bx,6,6,6,6/4bx,6,6,6,6/4bx,6,
{8}4bx/5bx,45,45,45,45,45,45,45,3bx/4bx/5bx/6bx,3/4/5/6,3/4/5/6,3/4/5/6,3/4/5/6,3/4/5/6,3/4/5/6,3/4/5/6,
{16}3bx/4bx,56,34,56,34,56,34,56,{16}3bx/4bx,56,34,56,34,56,34,56,
{8}1bx-3v5[8:4]*-7v5[8:4],,,,,,,,4,,34,,3/4/5,,3bx/4bx/5bx/6bx,,
{16}3bx/4bx,56,34,56,34,56,34,56,34,56,34,56,34,56,34,56,34,56,34,56,34,56,34,56,34,56,34,56,3bx/4bx,56,34,56,34,56,34,56,34,56,34,56,34,56,34,56,34,56,34,56,34,56,34,56,34,56,34,56,34,56,3bx/4bx,56,3bx/4bx,56,34,56,34,56,34,56,34,56,34,56,34,56,34,56,34,56,34,56,34,56,34,56,34,56,34,56,34,56,34,56,3bx/4bx,56,34,56,34,56,34,56,34,56,34,56,34,56,34,56,34,56,34,56,3bx/4bx,56,34,56,3bx/4bx,56,34,56,3bx/4bx,56,34,56,34,56,34,56,
{16}3bx/4bx,56,34,56,34,56,34,56,34,56,34,56,34,56,34,56,34,56,34,56,34,56,34,56,34,56,34,56,3bx/4bx,56,34,56,34,56,34,56,34,56,34,56,34,56,34,56,34,56,34,56,34,56,34,56,34,56,34,56,34,56,3bx/4bx,56,3bx/4bx,56,34,56,34,56,34,56,34,56,34,56,34,56,34,56,34,56,34,56,34,56,34,56,34,56,34,56,34,56,34,56,3bx/4bx,56,34,56,34,56,34,56,34,56,34,56,34,56,34,56,34,56,34,56,3bx/4bx,56,34,56,3bx/4bx,56,34,56,3bx/4bx,56,34,56,
{8}4bxv2-8[8:4]*v6-8[8:4],,,,,,,,36,,
{16}3bx/4bx,56,34,56,34,56,34,56,34,56,34,56,34,56,34,56,4bx,56,4,56,4,56,4,56,4,56,4,56,4,56,4,56,
{16}4bx,6,4,6,4,6,4,6,4,6,4,6,4,6,4,6,3bx/4bx,6,34,6,34,6,34,6,34,6,34,6,34,6,34,6,
{16}3bx/4bx,6,34,6,34,5,34,5,34,6,34,6,34,5,34,5,
{16}3bx,65,3,65,4,65,4,65,3,65,3,65,4,65,4,65,
{16}3bx/4bx,56,34,56,34,56,34,56,34,56,34,56,34,56,34,56,3bx,56,3,56,3,56,3,56,
{16}3,5,4,6,5,7,6,8,
{16}5bx,7,5,7,5,7,5,7,5,7,5,7,5,7,5,7,
{16}6,7,6,7,6,7,6,7,6,7,6,7,6,7,6,7,
{16}5,7,5,7,5,7,5,7,5,7,5,7,5,7,5,7,
{16}4,6,4,6,4,6,4,6,
{16}4,6,3,5,2,4,1b,,
E
