&title=フュージョン
&artist=DECO*27/KAITO/鏡音レン
&first=-0.857
&des=ペースト絵&Anon!
&lv_5=13+
&inote_5=(188){4},{16},,,,,,,,,,,,3x,
4x,3x,4x,3x,4x,{8}2xh[8:1]/5h[8:1],{64},,,,,,,,6x-1[8:1]*-1[8:1],3x-8[64:7],,,,,,,,,,,,,,,{8}3/6,
,2x/7x,7x/2,7/2x,7x/2,7/2x,{64}7x-4[8:1]*-4[8:1],2x-8[64:7],,,,,,,,,,,,,,,{4}7b/2b/E5f,
{8}1,8/2pp1[4:1],,2,,8,
7-4[8:1],7,1-5[8:1],1,{4}3>6[4:1],3,
1x,{8}8,1/7qq8[4:1],,7,,1,
2-5[8:1],2,8-4[8:1],8,{4}6<3[4:1],6,
8x,{8}1,8/2-5-1[4:1],,2,,8,
7<4[8:1],7,1-5[8:1],1,{4}3>6[4:1],3x,
1,{8}8,1/7-4V68[4:1],,8/7,,1,
2-6[8:1],3,2/8V64[4:1],1,8/4-8b[16:3],3,{4}2h[4:1],
{16}E8,E7,E6,E5,E4,E3,E2,E1,{2}E8/Ch[4:1],
{4}1x-4[8:1],1xh[8:3],{8},5,4,6,
{4}7x<4[8:1],7xh[2:1],,,8x-5[8:1]*-5[8:1],
8xh[8:3],{8},4,5,3,
{4}2xq5[8:3]*q5[8:3],2xh[2:1],,,5x-8[8:1],
5xh[8:3],{8},8,2,1,
{4}3x>8[4:1],3xh[8:3],,4x-1[8:1]*-1[8:1],
4xh[4:1],8xqq5[8:3],{2}8xh[4:1],
{8}1x,2x-7[8:1]/3x-6[8:1],{64},,,,,,,,2b/3b,E3,{192},Cf,,,,E7,{4},,{16},{4}7x/5bh[4:1],
{8}8-6[8:1],8,5-3[8:1],5,7-1[8:1],7,
{4}4p2b[8:3],{8}8x,8h[4:1],,,6,5/1,
{4}2/4bh[4:1],{8}1-3[8:1],1,4-6[8:1],4,2-8[8:1],2,
{4}5q7b[8:3],{8}1x,1h[4:1],,,3,4,
{2}5h[4:1]/8x<5[8:1],4h[4:1]/1x>4[8:1],
{4}5xh[8:1]/7h[8:1],7h[8:3]/5xh[8:1],{8},4,,3/5,
{4}2q7[4:1],1x/2,6xq3[4:1]*q3[4:1],6x/5x,
1x-4[8:1],1/5x-8[8:1]*-8[8:1],5/2x-5[8:1],2/6x-1[8:1]*-1[8:1],
6x/Ch[4:11],E2,E3,E4,
E5,E6,E7,E8,
E1/D1,E2/D2,E3/D3,E4/D4,
D5/E5,6x,7x,1x-4[8:1],
{8}8,8-5[8:1]*-5[8:1],8,2,2-5[8:1],2,6,6-1[8:1]*-1[8:1],
6,4x>1[8:1],,4x/5x<8[8:1],,1x,,2,
3,4,5,6,{16}7bx,8x,1x,2x,3x,4x,5x,6x,
{64}7xV15[4:1],3xV51[64:15]*V51[64:15],{4},,{16},,,{32},{4}2bx-5[8:1]/6bx-1[8:1],
2b/6b/E4f/E8,{8}8x/7bx,6b/1s5[8:1],,1b/5,,6,
7x-4[8:1],3x-8[8:1],7x,3x,6x<4[4:1],1,{4}6x,
8bx,{8}1/2b,3/8bqq1[4:1],,8/4,,3,
2x-5[8:1],6x-1[8:1],2x,6x,3xqq6[8:3],8,{4}3x,
{8},7x-1v4[4:1],,5,{4}4V61[4:1],{8}2,3x,
,3x-5v8[4:1]*-5v8[4:1],,1,{4}8V25[4:1]*V25[4:1],{8}6x,7x,
,8/4xqq1[2:1],,6,{4}5<8[8:1]*<8[8:1],5x,
2b-5[8:1],{64}2b/7b-4[8:1],E4f,,,,,,,,,,,,,,,7b/1bw5[8:1],E6f,,,,,,,,,,,,,,,1b,Cf,,,,,,,,,,,,,,,{4}2bx,
{8}8/7b,6b/1pp5[4:1],,1b/5,,6x,
7x-4[8:1],3x-8[8:1],7x,3x,6x<4[4:1],1,{4}6b,
8x,{8}1b/2,3/8bq1[4:1],,8/4,,3,
2x-5[8:1],6x-1[8:1],2x,6x,3V15[4:1],8,{4}3x,
{8}6,7,4,3/5,8,7/1,{4}2-6[8:1]/6-4[8:1],
6/2b-8[8:1],2/7<2[4:1],{2}2x>8[4:1],
{8},5,1x/5,5/1x,1x/5x,5x/1x,{64}1x-5[8:1]*-5[8:1],5x-1[64:7],,,,,,,,,,,,,,5xV71<5[4:5],
1xV35>1b[4:5],Cf,{1},{4},,,{16},,,{32},{4}3/8,
{8}2,2pp1[4:1],,1/2,,8,
7-4[8:1],7,1-5[8:1],1,{4}3>6[4:1],4,
5xh[4:1],{8}6b,7xqq8[4:1],,8x/7x,,1,
2-5[8:1],2,8-4[8:1],8,{4}6<3[4:1],6x,
8,{8}1,8/2-5-1[4:1],,1/2,,8,
7,6/5,2,4/3,{16}6/E5f,,,2/Cf,,,{8}7/E1h[8:7],
{16}E7,B6,B5,E5,B4,B3,{8}E3,{16}B3,B4,E5,B5,{4}B6,
8x-6-1-5[4:3],2x,2x,3xh[8:1],
{8},4xh[8:1],,,{4}5-7-4[8:3],{8}4,3,
{4}2<7[4:1],4x,6>3[4:1],3x,
{8}2,1,{4}8/2,{8}3x/7qq1[8:3],3x/7x,,,{4}4-2-5-1[4:3],
8x,8x,7xh[8:1],
{8},6xh[8:1],,,{4}1x>4[4:1],{8}4,5-2[8:1],
6,6x-3[8:1],,7,{4}7x-4[8:1],{8}3x,2x,
E2/D2,D6/E6,E4/D4,E8/D8,4xqq1[8:3],4x/8x,,,{4}8h[4:1],
{8}2,3h[4:1],7,6h[4:1],4,5h[8:1],
{4}6<3v5[8:3],{8}4,4,,2,{4}2,
5h[4:1],{8}3,2h[4:1],6,7h[4:1],1,8h[8:1],
{4}7V53q8[2:1],{8}1x,1x,,,,,{4}1x<6[4:1],
3,4>1[4:1],6,
7<4[4:1],8,1-6[4:1],2,
3x-8[4:1],4,5x-2[4:1],6,
7x-4b[8:1],7/1x,2x-6b[8:1]*-5b[8:1],2x,
8xqq8[4:1],4x/8x,{8}3-5-2-6[8:3],3,,8,
{4}8-6[8:1]*-5[8:1],8-2[8:1]*-3[8:1],8,8,
1xpp1[4:1],1x/5x,{8}6V84[4:1],8,,,3V51[4:1],
4x,,,7x,7bx,,,{4}8qq8[4:1],
4x/8x,{8}3-5-2-6[8:3],3,,8,
{4}8-6[8:1]*-3[8:1],8,{8}4x,3x,{4}2b/5<7[8:1],
5/1pp1[4:1],1x/8x,{8}7<5[8:1],7,1-5[8:1],1,
8-4[8:1],8,3,3,{4}2/5,6/4qq4[4:1],
8/4bx,{8}7-1-6-2[8:3],7,,3,{4}3,
4-2[8:1]*-1[8:1],4-6[8:1]*-7[8:1],4,5xpp5[4:1],
5bx/1,{8}2V48[4:1],4,{4}2,{8}7V15[4:1],1,
{4}7,2-6[8:1]*-5[8:1],2,4xqq4[4:1],
8/4bx,{8}7-1-6-2[8:3],7,,3,{4}3,
4-1[8:1]*>1[8:1],4<7[8:1]*-7[8:1],4,8xqq8[4:1],
8bx/4,1pp1[4:1],1/5,8,
{16}6/8bx,,,3/1bx,,,{8}5b/4,{2}8b>1-4[8:1]/1b<8-5[8:1],
{4}E5/C,E6,E7,E8,
E1/C,E2,E3,E4,
E5/C,E6,E7,E8,
C/E1,E2,E3,E4,
{8}5/6,6,6/7,7,7/8-5[8:1],8,{4}1/8,
{8}4/3,3,3/2,2,2/1-4[8:1],1,{4}8/1,
{8}6,5,4,3,{16}2bx,1x,8x,7x,6x,5x,4x,3x,
{4}2x-8[8:1]/7x-3[8:1],2b/7,1bw5[8:1],{64}1b,Cf,,,,,,,,,,,,,,,{4}3b,
{8}1/2b,3b/8z4[8:1],,8b/4,,3,
4/2b-5[8:1],6b-1[8:1],2bx,6bx,3bx>5[4:1],8,{4}3bx,
1bx,{8}8/7b,6b/1pp8[4:1],,1b/5,,6b,
7b-4[8:1],3b-8[8:1],7bx,3bx,6bxpp4[4:1],1,{4}6bx,
{8}3bx,{16}3,4,{8}2-5[8:1],5V31[8:1],2bx,8-3[8:1]*-3[8:1],7,6b/8x,
,2,6-1[8:1],1V75[8:1],6bx,4-7[8:1]*-7[8:1],3,4x/2b,
,3,4/7x,5/8x,{4}6bx-2[8:1]/1x-6[8:1],1b/6x,
8b<5[8:1],2bx/8>3[8:1],6bx/8bw4[8:1],8bx,
{8}1bx,5,{32}1bx-3[8:1],8x,{16}7x,{8}4,1bx,5,{32}1bx,8x,{16}7x,{8}4,
1bx/5-2[8:1],6x,5b/7-4[8:1],8,7b/1xw5[8:1],2,{64}1bx,Cf,,,,,,,,,,,,,,,{8}8bx,
4,{32}8bx-6[8:1],1x,{16}2x,{8}5,8bx,4,{32}8bx,1x,{16}2x,{8}5,
8bx/4x-7[8:1],3,4b/2x-5[8:1],1,2b/8w4[8:1],7x,{64}8bx,Cf,,,,,,,,,,,,,,,{8}2bx/6x,
1,8b/5x,6,7x/4b,3,8b/2x,7,
{4}4bx>1[8:1]/6<1[8:1],4/6,8-5[8:1]/2-5[8:1],2/8,
{8}3bxqq8[8:3],4,4,4,{4}4<7[8:1],4/1x,
{8}2bxpp5[8:3]*pp5[8:3],1,1,1,{4}1<6[8:1]*<6[8:1],1/4x-1[8:1],
{8}4bx,6,6,6/1,6/1,6/1,{4}6-2[16:3]*-2[16:3]`1V74[16:3],
{64}6bx/1bx,Cf,
E
