&title=Maboroshi
&artist=かめりあ
&first=0
&des=AonlyZ
&lv_5=14+
&inote_5=(190){4},{1},,,{4},,,{8}3,
4,5,6h[8:3],,,3,4,
5,6h[8:3],,,,,,,2,
3,4,5h[8:3],,,3,4,
6qq2[4:3],7h[8:3],,,,,,,8,
7,5,4h[8:3],,,7,6,
4pp8[4:3],3h[8:5],{24},,,,,,,,,,,,,,,2,3,4,
{8}5-1[16:3],,,7-4[16:3],,,{4}2<6[16:3],
8h[8:3],{16}5,4,3,2,1,8,{24}5/7,4,3,2,1,8,7,6,5,
{4}4h[16:3]/2h[16:3],{16}3,5,{8}6h[8:3]/4h[8:3],,,,,{4}5h[16:3]/7h[16:3],
{16}6,4,{8}3h[8:3]/5h[8:3],,,,,{4}1h[16:3]/6h[16:3],
{16}2,7,{8}8h[4:1]/3h[4:1],,,7,6,
4,{24}3x,2,1,8pp3[8:3],7,6,5,4,3,2,1,{48},,,,,,,,{16}5,6,7,8,
{4}1h[16:3]/4h[16:3],{16}8,7,{8}6h[8:3]/2h[8:3],,,,,{4}7h[16:3]/3h[16:3],
{16}6,5,{8}4h[8:3]/1h[8:3],{24},,,,,,,,,2,3,4,
{8}5/6,1,{16}5,3,{8}6h[4:1]/4h[4:1],,,3,4qq5[8:3],
6,7h[4:1],{16},,,,7,8,1,2,{24}3/7,8,1,2,3,4,
{4}8h[16:3]/5h[16:3],{16}4,3,{8}2h[8:3]/6h[8:3],,,,,{4}3h[16:3]/7h[16:3],
{16}2,1,{8}8h[8:3]/5h[8:3],{24},,,,,,,,,1,2,3,
{4}6h[16:3]/4h[16:3],{16}7,8,{8}1h[4:1]/5h[4:1],,,8,7,
4,{24}3,2,1,8pp4[8:3],7,6,5,4,3,2,1,{48},,,,,,,,{16}5,6,7,8,
{4}5h[8:1]/1h[8:1],7h[8:1]/6h[8:1],4h[8:1]/3h[8:1],{8}2/1,8,
7/5,6,{4}4h[8:1]/5h[8:1],4h[8:1]/2h[8:1],8h[8:1]/1h[8:1],
{8}7/5,5,6/4,6,5/3,3,4/2,4,
{16}1,3,2,4,1,6,3,5,8xh,1x,2xh,3x,{24}4x/1xh,2,3,4xh,5,6,
{8}7,7-3[16:3],,,4v1[16:3],,,6>1[4:1],
,3h[2:1],{24},,,,,,,,,8pp2[16:3],7,6,,,,,,,{8}5-1[16:3],
5,,,3<8[4:1],,,6,
,5,,2h[8:1],,8h[8:1],{16}2,3,4,5,
{8}6/8-4[16:3],8,,,5v2[16:3],,,7qq4[8:3],
{16},,3,2,{4}1h[4:1],{8},1pp3[16:3],,,6-2[16:3],
6,,,{4}4<1[4:1],7h[4:1],
{8},2,3,4h[8:1],{24}7,6,5,4,3,2,1/4,5,6,7,8,1,
{8}2/7,7-3[16:3],,7,{4}4qq2[16:3],{8}4,6>1[4:1],
,3h[2:1],{24},,,,,,,,,8pp3[8:3],7,6,,,,,,,{8}5,
6<1[16:3],,,2>5[16:3],,,6,
,8/7,,1/2,{16}3,4,5,6,7/4,5,6,7,
{8}8-4[16:3],8,,3,{4}1v6[16:3],{8}6,8p4[16:3],
{16},,3,2,{4}1h[8:3],{16},,5,6,{4}7h[8:3],
{8},5>2[8:1],{16},,1q5[4:1],8,{4}7,{8}7<4[16:3],8,
{16},,3,2,1,8,7,6,{24}5/8,7,6,5/3,2,1,{8}8/6,4,
2b/8b,{24}7,6,5,{8}4,2/8,{24}7,6,5,4,,,{8}2-5[8:1],2,
6-1[8:1],6,3<7[16:3],3,{2}8<5[16:3],
{1}4w8[4:1],
{8}2h,{16}2h,3h,{8}4h,{16}8h,7h,{8}6h,1,6/4,3,
2b/8b,{24}7,6,5,{8}4,2/8,{24}7,6,5,4,,,{8}2-5[8:1],2,
7-3[8:1],7,1>5[16:3],1,{2}6>3[16:3],
{4}1w5[4:1],{16},,,,,,,,4,6,3,7,
2,1,8,7,4,3,2,1,5,4,3,2,{8}6/1,5,
7b/1b,{24}2,3,4,{8}5,7/1,{24}2,3,4,5,,,{8}7-4[8:1],7,
3-8[8:1],3,6>2[16:3],6,{2}1>4[16:3],
{1}5w1[4:1],
{8}7h,{24}7h,6h,5h,{8}4h,{24}1h,2h,3h,{8}4h,8,3/5,6,
7b/1b,{24}2,3,4,{8}5/6,7b/1b,{24}2,3,4,5/6,,,{8}7<4[8:1],8,
2-6[8:1],1,{4}7-4[8:1]*-2[8:1],7>5b[8:1],7,
{8}7b/2b,{24}3,4,5,{8}6/7,8b/2b,{24}3,4,5,7/6,,,{8}2,3/7,
8/4,{24}1/5,2,3,{8}4,1/6,{24}8,7,6,5/1,,,{4}4/8bw4b[8:1],
{1}8<1[4:15],
,,,8h[1:3],
{16},,,,,,,,,,,,,,3,2,
{1}1h[2:3],
{2},7,
{8}6,5,4,3h[8:3],,,6,5,
4,3h[8:3],,,,,,,7,
6,5,4h[8:3],,,6,5,
3pp7[4:3],2h[8:3],,,,,,,1,
2,4,5h[8:3],,,2,3,
5qq1[4:3],6h[8:5],{24},,,,,,,,,,,,,,,7,6,5,
{8}4-8[16:3],,,2-5[16:3],,,{4}7>3[16:3],
1h[8:3],{16}4,5,6,7,8,1,{24}4/2,5,6,7,8,1,2,3,4,
{4}5h[16:3]/7h[16:3],{16}6,4,{8}3h[8:3]/5h[8:3],,,,,{4}4h[16:3]/2h[16:3],
{16}3,5,{8}6h[8:3]/4h[8:3],,,,,{4}8h[16:3]/3h[16:3],
{16}7,2,{8}1h[4:1]/6h[4:1],,,2,3qq5[8:3],
5,{24}6,7,8,,,,,,,8x,7x,{12}6xh[6:1],{48},,,,{16}5,4,3,2,
{4}5h[8:1]/1h[8:1],2h[8:1]/3h[8:1],4h[8:1]/6h[8:1],{8}7/8,1,
2/4,3,{4}5h[8:1]/4h[8:1],5h[8:1]/7h[8:1],1h[8:1]/8h[8:1],
{8}2/4,4,3/5,3,4/6,6,5/7,5,
{16}8,6,7,5,8,3,6,4,1xh,8x,6xh,5x,{24}4x/8xh,7,6,4xh,3,2,
{1}4bxh[1:1]/1-5b[8:13],
{16},,,,,,,,,,,,,,,,4,
6,1,5,3,8,4,6,1,7,4,8,2,5,1,7,
{24}2,3,4,5,6,7,8/2-6[8:1],3,4,5,6,7,{4}8/2bx,{16}5/8>3b[8:1],7,6,5,
{4}8b/4b<7[8:1],{8}4/2,{24}2,3,4,{8}5/8-4[8:1],7-3[8:1],8<2b[4:1],7,
{4}8b,{16}6,7,{8}1/8-4[8:1],{24}2,3,4,8/5,,,{4}1<3[4:1],
1b/7,{24}7,6,5,2/4,,,{8}1h[8:1],7h[8:1],5h[8:1],4h[8:1],
{24}1,2,3,4/8,,,8,7,6,5/2,,,2,3,4,5h[8:1],{48},,,,{16}1>4[8:1],8,7,6,
{4}1b/5b<8b[8:1],{8}5/2,{24}2,3,4,{8}5>2[8:1],3/7-4[8:1],5/6,7,
{24}1bx,8,7,6,5,4,3/1,8,7,6,5,4,{8}3/1-5[8:1],7-3[8:1],1,7,
1,{24}1,2,3,{8}4/7,{24}7,6,5,{8}4/2,{24}2,3,4,{8}6/5,{24}6,7,8,
{8}1/2h[4:1],,,1,{32}1bx,2/8,7/3,4/6,{8}5bh[4:3],{32}3,2,1,8,7,6,,4,
3,2h[32:11],,,,,,,,,,,,,,,{8}2-4[8:1]/5-1[8:1],1/4,{4}2b/5b,
{8}2/8,{24}2/8,3,4,{8}5>1[8:1],7,5b,{24}7,6,5,{4}4/8>6b[4:1],
8/4,{24}8,1,2,3,,,{8}5-1[8:1],6-8[8:1],5,6,
{24}2,3,4,5/1,,,7,6,5,4/8,,,7,6,5,4/8,,,{4}3b/7<4b[8:1],
7b/3b>8[8:1],{8}3,{24}7,6,5,{8}4/1,2/5,6/3,4/7,
{16}7h,6,5/8h,1,2/6h,5,4/1h,2,3/8-4b[8:1],7,6/2h,3,{4}4bx/8bx,
{8}3/7,{24}2,1,8,{8}7/5b,{24}3,2,1,{8}8/6b,{24}4,3,2,{8}1/7b,{24}5,4,3,
{1}8bh[4:3]/2<4b[2:1],
{16}3,1,2,8,1,7,2,6,3,4,5,6,2,3,4,5,
1,2,3,4,8h,5,8,5,7h,4,7,4,6h,3,5,2,
4h,3,2,1,5,8,5,7,4,3,2,1,3,8,7,8,
6,5,4,3,1h,4,1,4,8h,5,8,5,7h,6,7,6,
8h,1,2,3,8,7,6,5,2h[16:1],3,4h[16:1],5,3h[16:1],2,5h[16:1],4,
2,3,4,5,8,1,2,3,8h[16:1],1,6h[16:1],7,1h[16:1],8,7h[16:1],6,
3,4,3,4,{8}2/5,{16}6,5,6,5,{8}4/7,{16}1,8,1,8,
{32}1,2,3,4,5,6,7,8,1,2,3,4,5,6,7,8,{4}1w5[8:1],1b,
{8}2/8,{24}3,5,4,{8}6,2/8,{24}3,5,4,6,,,{8}5/7<4[8:1],8,
7/1-5[8:1],2,7-3[8:1]/1-3[8:1],6,{2}1/7>5b[16:3],
{8}7/1,{24}6,4,5,{8}3,7/1,{24}6,4,5,3,,,{8}2v5[8:1],1,
2/6-1[8:1],7,6/2,3,{24}8,7,{12}6h[6:1],{48},,,,{16}5,4,3,2,
{8}7/1,{24}6,4,5,{8}3,7/1,{24}6,4,5,3,,,{8}4/2-6[8:1],1,
2/7-4[8:1],8,3-8[8:1],2,{4}3/5-1[8:1],5,
{8}2/8,{24}3,5,4,{8}7,2/8,{24}4,6,5,7,,,{8}8/4,3,
7/1,{24}6,4,5,{8}1,2/8,{24}3,5,4,7,,,{4}1bw5b[8:1],
{1}1>8[4:15],
,,,,,,,{8}3,
4,5,6h[8:3],,,3,4,
5,6h[8:3],,,,,,,2,
3,4,5h[8:3],,,3,4,
6qq1[4:3],7h[8:3],,,,,,,7,
6,4,3h[8:3],,,7,6,
4pp8[2:1],3h[8:5],{24},,,,,,,,,,,,,,,3x,4x,5x,
{8}7,1,2,3,,,7h,8h,
1h,2h,
E
