&title=Love∞Destiny
&artist=牧野由依/渕上舞/津田美波/青木瑠璃子/大空直美
&first=0.01
&des_1=Wanna be Your Everything
&des_2=Wanna be Your Everything
&des_3=Wanna be Your Everything
&des_4=Wanna be Your Everything
&des_5=Wanna be Your Everything
&lv_5=13+
&des_6=Wanna be Your Everything
&des_7=Wanna be Your Everything
&des=Wanna be Your Everything
&inote_5=(115){1},
{16}
4h[4:1],,,,6,5,,3,4-6[12:1],3h[16:1],,4,,,,,
7h[16:1],,5,6,4-1[12:1],5,,4h[16:3],,,,,E2,E8,E4,E6,1h[8:2],,,,
7-5[12:1],,,4h[16:3],,,,,3<5[12:1],,6,,6h[4:1],,,,
5,7,5,6,4b,5,2,4,3b,5,4,6,
5h[4:1],,,,7,5,,2,4-1[12:1],3h[16:1],,5,,,,,
7h[16:1],,8,6,1-4[12:1],5,,1h[16:3],,,,,E8,E2,E6,E4,8h[8:2],,,,
4-2[12:1],,,7h[16:3],,,,,6,,1,4,2>4[12:1],,5,,5,,6,,
7b,5,6,2,4b,3,5,4,
6h[4:1],,,,,,7h[16:1]/5,,5-8[12:1],4h[16:1],,,3/5,,2,,
2h[4:1],,,,,,8h[16:1]/2,,2-5[12:1],4h[16:1],,,2/5,,6,,
7h[4:1],,,,,,6h[16:1]/4,,4-1[12:1],5h[16:1],,,4/6,,7,,
8h[4:1],,,,,,1h[16:1]/7,,7-4[12:1],,1b/8b,,7,1b-5[16:1],,,
8h[4:1]/1b,,,,,,4h[16:1]/7,,4>1[12:1],6h[16:1],,,4/5,,6,,
7h[4:1],,,,,,8h[16:1]/2,,8<5[12:1],2h[16:1],,,1/8,,2,,
3h[4:1],,,,,,6h[16:1]/4,,6<1[12:1],5h[16:1],,,5/6,,4,,
3h[8:1],,5,4,6h[8:1],,4,5,3>8[12:1],,8,,7<4[12:1]/3,,6,,
8h[8:3]/7,,,,,,4h[4:1],,,,2>6[4:1],,2,,7,,
8h[8:3],,,,,,5h[4:1],,,,6<2[4:1],,6,5,,,
4h[8:3],,,,,,1h[4:1],,,,4>8[4:1],,4,,8,,
7h[8:3],,,,,,1h[4:1],,,,7,,7,8,6,1,
{16}5h[16:3],,,3,4,,2h[16:3],,,4,3,,2/6h[4:1],,1,,
{16}3h[16:3],,,5,4,,6h[16:3],,,5,6,,3/7,,8,,
{16}1>5[8:1]/8,,,7,1,,7<3[8:1],,,8,7,,1-5[12:1],,8,,
{16}1x-4[12:1]*-6[12:1],,,2/8,1xw5[12:1],,,3/7,1x,,,,{32}4,5,6,7,8,1,2,3,
{16}4qq3<4b[8:1]*pp5>4b[8:1]/5,,,,4,,,,2-5[12:1],8,1-6[12:1],7,2,,1,,
{16}4w8[12:1],,,,4,,,,7,1,6>3[12:1],4,5,,6/1,,
{16}8>3[12:1],,6-1[12:1],,8<5-7-4b[8:3],,6,,3,,2,,1,,8,,
{32}8-3-6-2[4:1],,,,2/5,,,,8/6,,,,7h[16:1],,,,
{16}7,7,1,4,3,6,4,8,
{16}8xb-5[12:1]/4xb-1[12:1],,,,8/4,,,,3-8[12:1],5,4-7[12:1],6,3,,4,,
{16}1x<6[12:1]*>4[12:1],,,,1,,,,4,6,5<8[16:1],7,3,5,2,,
{16}1>4[12:1],,8,,1-5[12:1],,7,7,1>4[12:1],,8,,1<5[12:1],,7,7,
{16}1,,4,,3/5,,3,,3x/5x,4,2/6,1,2x/8x,3/7,4/6,5,
{16}1bqq7>5[16:9],,,,,,8h[4:1],,,,,,8,,7,7,
{16}5h[16:3],,,7h[16:3],,,3h[8:1],,4h[16:3],,,1,4,2,5,3,
{16}6h[16:3],,,8,6,1,7,2,8h[16:3],,,1h[16:3],,,5h[8:1],,
{32}2,3,4,5,6,7,8,1,{16}2x/6x,,3,2x/5x,,6,3,5,2,4,1,,
{16}1xh[8:1]/7xh[8:1],,,,3,4,2,5,3,4,2,5,1,6,8,7,
{16}1-4>3-8[4:1],,,8,1,,7,,7v4<5-1b[4:1],,,1,7,,2,2,
{16}3bh[8:3],,,,7,,1,2,8/3,,7,,6/2,,5,,
{16}1b/4bh[4:1],,,,1,,2,,
{32}5/4,3,2,1,8,7,6,5,4,3,2,1,7,6,5,4,
{32}1,2,3,4,6,7,8,1,2,3,4,5,1,2,3,4z8[8:1],
{2}5bx`Cf,
{2},2b/A6f,
{8},,,3b/4b,8bz4[8:1]/Ch[8:1]/B4f/B5,,,,
{8},,,4b,2bh[8:7]/D7/E7f,,,,
{8},,,4,{16}3h[8:1],,5,5,4h[8:1],,6,6,
{16}5xb,8xb,3xb,6xb,4xb,1xb,6xb,8xb,7xb<3[32:3]*>3[32:3],,,,7,,,2,
{16}6-2[12:1],3,4-8[12:1],2,6,4x,4x,1x,1x<7v5>4[16:3]*>3v5>4[16:3],,,,1,,,,
{16}3>8[12:1],4,2,4,3,,7,,8-5[12:1]/1,,6,4,8,,2,2,
{16}4>1[12:1],,3/5,,4,,6,6,8<5[12:1],,1>4[12:1],,8,,1,,
{16}E5,C,{384}1x,8x,{192},{96},{48},,2x/7x,,,{384}3x,6x,{192},{96},{48},,4x/5x,,,{16}5x/4x,4x/5x,4xqq5<8[4:5]/5xpp4>1[4:5],,,,,,,,
{1},
{16},,,,
2,7,4,5,1h[4:1],,,,7<4[12:1],,8,,1h[16:2]/7,,,,25,,3,,4>1[12:1]/5,,3,5,4,6,,
7,1b,7,5,6,2b,4,3,7,
5h[8:1],,6,5,6,3,4,2>5[12:1],,1/8,,2/7h[16:3],,,,,
5,6,3,8,4<7[12:1],5,,2h[16:5],,,,,
7,2,5,4,8h[4:1],,,,3>8[12:1],,7,,3/6h[8:1],,,,5,,1,4,2>5[12:1],,1,8,2,7,,
6,5b,8,3,4,1b,6,8,7,1xw5b[32.8#48:1]/6h[8:6],,,,,,,,,,,,,,1b,,
E
