&title=STAR BEAT! ~ホシノコドウ~
&artist=Poppin'Party
&first=-0.63
&des=「夢じゃない」
&lv_5=13
&inote_5=(195){4},,,,{1}7bqq7[4:5]/3bqq3[4:5],
,7qq8[4:5]/3qq4[4:5],
,8qq1[4:5]/4qq5[4:5],
,1qq2[4:5]/5qq6[4:5],
{4},,,,5/4x>1[4:3],
5,5,5,
5,5/E1,5/E2,5/E3,
6/4x>1[4:3],6,6,6,
6,6/E1,6/E2,6/E3,
5/4x>2[4:1],5,5,5,
5/3x>1[4:1],5,5,5,
5/4,5/3,5/2,5/1,
1/5,6/1,7/1,1/8,
{8}E3,B3,B4,E5,E1,B8,B7,E7,
E1,B1,B2,E3,E7,B6,{4}B5,
{1}3h[8:5]/4h[8:3],
{2}2h[4:1]/3<6[2:1],{8}2,2,,,{4}5h/6h,
5h[4:1]/6h[8:3],,,{2}7h[4:1]/6>3[2:1],
{8}7,7,,,{2}2V46[4:3],
{8}6,6,,,{4}7-5[4:1],
5-3[8:3],{8}3,3,,,{4}E2,
B4/E4,E8,E6/B5,
{8},,E1,C,{4}E5,C/E8/E4,
6x/5x,8-4[16:5],{8}3,3,{4}3,
2,5/2>5[16:5],{8}6,6,{4}6,
7/8,1-5[16:5],{8}2,2,{4}2,
3-6[16:3],{8}8,8,{4}7-2[16:3],{8}4,4,
{4}3,1-5[16:5],{8}8,8,{4}8,
7,4/7<4[16:5],{8}3,3,{4}3,
E4/B4,B1/E2/B2,E6/B5,E8/B8/B7,
C,{8}E1,C,{4}E5,C/B7/B6/B2/B3,
{8}5x,5,4x,4,6x,6,3x,3,
7x,7,2x,2,{16}8x,1,8,1,7x,2,7,2,
{4}6x-3[8:1],6bx/7bx,{8},2,{4}2-4[4:1],
4-6[4:1],6-8[4:1],8-2[4:1],2,
3x-6[8:1],3bx/2bx,{8},1,2/8,7/3,
{4}3-5[8:1]/7-5[8:1],3/7,3-1[8:1]/7-1[8:1],3/7,
7xh[4:1],{32}8bx,1x,2x,3x,,,,,{4}8xh[4:1],{32}1bx,2x,3x,4x,,,,,{4}1xh[4:1],
{32}2bx,3x,4x,5x,,,,,{4}8xh[4:1],1x,
1s5[2:1],8,{8}6,6,{4}6,
8z4[2:1],1,{8}3,3,{4}3,
3x-6[8:1],3bx/2bx,{8},7,{4}7-5[4:1],
5-3[4:1],3-1[4:1],1-7[4:1],7,
6x-3[8:1],6bx/7bx,{8},8,7/1,2/6,
{4}6-4[8:1]/2-4[8:1],6/2,6-8[8:1]/2-8[8:1],6/2,
2h[4:1],{32}1bx,8x,7x,6x,,,,,{4}1h[4:1],{32}8bx,7x,6x,5x,,,,,{4}8h[4:1],
{32}7bx,6x,5x,4x,,,,,{4}1,8/1,
3/4,{8}7,6/5,,2,{4}3/4,
{8}8,5/7,,1,{4}2/4,1/8-5[8:1],
{2}4h[1:1],{8}5,5,5,5,
{4}5,4b-1b[8:1]/5b-8b[8:1],{2}Cf/E7/B7/A7/B2/E3/A2,
{8}7x-4[8:1],1,7x,2,3x-8[8:1],5,3x,6,
7x-4[8:1],1,7x,2,3x-8[8:1],5,3x,6,
7x<4[8:1],1,7x,2,3x>8[8:1],5,3x,6,
7x<4[8:1],1,7x,2,3x,4,5,6,
{4}7x-2[8:1]/3x-6[8:1],3/7,5x>2[8:1]/1x<6[8:1],1/5,
5x-8[8:1],5x/1x-4[8:1],1x/8x,3x/7x,
5-7[8:1],5/4,{8}4/5-1[8:1],3,{4}5/2,
4-2[8:1],4/5,{8}5/4-8[8:1],6,{4}4/7,
{8}2x-5[8:1],8,2x,7,6x-1[8:1],4,6x,3,
2x-5[8:1],8,2x,7,6x-1[8:1],4,6x,3,
2x>5[8:1],8,2x,7,6x<1[8:1],4,6x,3,
2x>5[8:1],8,2x,7,6x,5,4,3,
{4}2x-7[8:1]/6x-3[8:1],6/2,4x<7[8:1]/8x>3[8:1],8/4,
7x-5[8:1],7x/2x-4[8:1],2x/7x,8x/1x,
1>3[8:1],1/8,{8}8/1-5[8:1],7,{4}1/6,
8<6[8:1],8/1,{8}1/8-4[8:1],2,{4}8/3,
3h[4:3],4,{8}5,5,{4}5,
6-1[8:1],{8}5,4,{4}3-8[8:1],{8}4,5,
{4}6h[4:3],5,{8}4,4,{4}4,
{8}3,3h[8:1],7,7h[8:1],1,1b,{4}5,
{1}3bV14[2:1]*pp4[2:1],
{8}6/5,7,8/1,2,3/4,2,{4}1/8,
{1}3h[4:3]/7b>5[2:1],
{8}3/4,2,1/8,7,6/5,7,{4}8/1,
{8}3/4,5/2,1/6,{16}7,8,{8}7,1/2,3,4,
6/5,4/7,8/3,{16}2,1,{8}2,8/7,6,4/5,
3,3,2,2,1/8,1/8,7/2,3/6,
{2}5b/4b,Cf,
{4}2<7>2[2:3],6,5h,4,
3h,4,5h,6,
7>2<7[2:3],3,4h,5,
6h,5,4h,3,
2h[2:1],4,{8}5,2,6,2,
7,2,{4}8,{8}7,6/5,,3/4,
{4}2,1/8,{8}6,5,{4}4/7,
{8}2/5,{16}3,4,{4}3,{8}5/2-6[8:1],2/5,,,{4}7b,
6/5,{8}7h[8:1],4,7h[8:1],3,
7h[8:1],2,7h[8:1],1,7,6/8,,2,
{4}1/3,8/1,{8}2h[8:1],7,2h[8:1],6,
2h[8:1],5,2h[8:1],4,{12}2x,3x,4x,6x,7x,8x,
{4}1x/5x,3/7,{8}6,5,4/7,8,
1/2,3,{16}4/5,,,5,{8}4,4,{4}3/6,
2/1,7/8,{8}5/4,3/6,{4}7/2,
8/1,{16}1,8,2,7,1,8,2,7,1,8,2,7,
{1}1>6[4:5],
{8},,,,,,,,E7,
B6,B5,E5,E1,B1,B2,E3,
E1,B8,B7,E7,E3,B3,B4,5xw1[8:23]*w1[8:23]*w1[8:23]*w1[8:23]*w1[8:23],
E
