&title=レプリカ (feat. mami)
&artist=有形ランペイジ,mami
&first=0
&lv_5=1000101
&des_5=FGATionP,linker of the Whispers of LovE
&inote_5=
(120){4},{8},5bv2-7[4:1],{16}4,4,,3,{8}3,2>5-1[4:1],
{16}6,6,,7,{8}7,8bv3-6[4:1],{16}1,1,,2,{8}2,3>8-4[4:1],
{16}7,7,,6,{8}6,{16}5b,5,3,6,6,4,{32}8,7,6,5,{16}4/3,3,
2,2,1h[32:1]/8h[32:1],8h[32:1]/1h[32:1],8h[32:1]/1h[32:1],1h[32:1]/8h[32:1],{8}8q5[16:3]/1v3[16:3],,,,4h[8:1]/E8f/A7f/B7f/E7f,
,A1f/B1f/D2f/E2f,{16}6,6,3,5,4,6,{8}4-2[8:1],8,8/4<6[8:1],
8,8/4V28[4:1],8,8V64[16:3]*p4[16:3],,,,Ch[8:1],
,5h[16:1],{16}4,4,6,2,5,3,{8}4-6[16:1],3,4-8[16:1]/1>4[16:1],
{16},,,,7,6,5h[8:1],4,3,2,{8}5pp7[12:1]/1pp3[12:1],2/6,A5f/A1f,
,A7f/E7f/E3f/A3f,{16}4,5,1,6,2,7,{8}3-7[12:1],{16}6,5,{8}3>8[12:1],
{16}5,4,,,4,5,6h[8:1],4,3,2,5<8[16:1]/1v4[16:1],2/6,{8}3/7,A1f/A5f,
,E8f/A7f/E3f/A3f/D7f/D4f,{16}5-7-4[8:1],5,{8}4-8[12:1],{4}3h[8:1],{16}1,2,{8}3qq1[16:1]*p7[16:1],
{4}4/5,{16}4,4,4h[8:1],5,6,7,{8}8-3[16:1]/5-1[16:1],4/6,A8f/5b<3>5b[4:5],
,,,,,,,4h[2:1],
,,,,,,3,3V17[16:5],
,,5,5V31[16:5],,,7,7V53[16:5],
,,1,1b,{16},,,,,3,5,5,
1,6,2,7,3,8,{8}4v2[16:1],{16},,,,,6,4,4,
5,2,6,3,7,4,{8}8qq6[16:1],{16},,,,,4,{8}5>3[8:1],
3>1[8:1],1<7[8:1],{4}7<5[8:1],{16},,,,4,4,6,5,
3,4,5,6,7,8,{8}1s5[16:1],,,2h[8:1],4b,
{16}5,4/6,,3/4,{8}4/2b>4p8[6:1],7,{16}5,5,,6,{8}6,5/7bV51[8:1],
{16}4,4,,3,{8}3,4/2bp6<1[8:1],{16}6,6,,5,{8}5,4b,
{16}3/5,5/3,2,4,3,5,B3,E6,E5,E7,,,{8}5h[16:1],{16}3,4,
5,6,4-2-5[16:3],5,6,7,{8}4/8h[8:1],{32},,,,6,5,4,3,2,1,8,7,{8}6b/4b>3v1[8:1],
{16}5,5,,6,{8}6,7bv4<6[8:1],{16}4,4,,3,{8}3,2b-5V31[8:1],
{16}5,5,,7,{8}7,8b-2p6[8:1],{16}3,3,,4,{8}4,4bh[8:1]/5bh[8:1],
{16},,2,4,3,5,3,4,5,6,{32}4,5,4,5,4,5,{48}4,5,,{8}E4,
,B4,,B5,,E6,5h[8:1],Cfh[32:1],
{24},,,5/B2/B3/E3f,,5,,5,,5/B8/E8f/B7,,5,,5,,{8}5/B2/B3/E3f,4h[8:1],Cfh[32:1],
{24},,,4/E7f/B6/B7,,4,,4,,4/B1/E2f/B2,,4,,4,,{8}4/B7/E7f/B6,{16}3,4,{8}5v8[16:1],
{16}7/3,6/2,{8}5/1,{16}2,3,{8}4-8[16:1],5-7[16:1],4V28[16:3],5,7x>3[8:1],
{16},5,{8}5h[8:1],{24},,,E8f/E2,,E3f/E7/D7/D3,,E6f/E4,,{8}D5f,3h[8:1],Cfh[32:1],
{24},,,3/E1/B1/A1f,,3,,3,,3/E8/B7f/E7,,3,,3,,{8}3/B5f/E6/E5,6h[8:1],Cfh[32:1],
{24},,,6/E1/B8/A8f,,6,,6,,6/E2/B2f/E3,,6,,6,,{8}6/B4f/E4/E5,{16}3/7,2/6,{8}5-7>8[16:1]/1-3<4[16:1],
2/6,5-1[16:1]/1-5[16:1],,5/1w5[16:1],,,7h[16:1]/3h[16:1],{16}2h[32:1],6h[32:1],
3h[32:1],5h[32:1],4h[32:1]/6h[32:1],4h[32:1]/6h[32:1],4h[32:1]/6h[32:1],6h[32:1]/4h[32:1],{8}6<8v5[8:1]/4>2v5[8:1],,,,E8f/B7f/B8f,
,E3f/B2f/B3f,{16}5,5,3,5,4,6,{8}3-1[16:1],{16}4,4,{8}3-8[16:1],
{16}4,4,{8}3>6[4:1],{16}5,5,{8}6<3[4:1],,,,E7f/B6f,
,B2f/E3f,{16}8,8,4,6,3,5,{8}4v7[32:3]/2-6[32:3],3/5,2v5[32:3]/4-8[32:3],
,,6,{16}4h[8:1],5,6,7,{8}8v3[32:3]/5v2[32:3],7/4,A8f/A5f,
,E1f/B1f/B4f/E5f,{16}6,2,7,3,8,4,{8}1<6[32:3],{16}5,5,{8}1p5[32:3],
{16}4,4,{8}1v4[32:3],{16}3,3,,,8,1,6-1[16:1]/2-5[16:1],3/7,{8}4/8,A2f/A6f,
,A8f/A4f,{16}3,5,2,6,1,7,{8}8-6[16:1]*-4[16:1],7/1,8-5[16:1]*-3[16:1],
{16},,,,1,2,3h[8:1],4,5,6,{8}7<4[16:1]/4>1[16:1],3/6,A7f/4s8b[2:3],
,,,,,,,,,,,,,,,2>7[4:1],
,7>4[4:1],,4q5[8:1],,,,8<3[4:1],
,3>6[4:1],,6p5[8:1],{16},,,,,3,4h,5,
4,6,5,4,5h[48:1],4,{8}3h[32:3]/6h[32:3],{16},,,,5,3,2h[16:1],4h,
,3h[16:1],{8}5,{16}4h[8:1],5,{8}6h[32:1],{16},,,,,8h[16:5],{8}2,
4,6h[16:1],{16}4h[16:1],1h,3,5h[16:3],{4}4,{16}2h[16:1],4h[16:1],1h[16:1],8h[16:1],
2h[16:1],4h[16:1],3h[16:1],5h[16:1],4h[16:1],6h[#0.125],{8}5-1[0.25##0.5],,,(240){4}4h[8:1],
3b/5b,{8}5,4b/6b,,3/4,{4}5bh[1:1]/3b>4[16:13],
,,,,2b/8b,
{8}4,5b/3b,,6/5,{4}4bh[1:1]/6b<5[16:13],
,,,,{2}3h[4:1]/5h[4:1],
{8}4,4,5,3,
2-6[8:1],1-7[8:1],2,1,,,5,5,
3b-8[8:1],4,3,6b<1[8:1],5,6,2,3,
{4}4b-8[8:1]/5b-1[8:1],5b/4b,{16}2,3,4,5,1,8,7,6,
{4}5b/4b-1[8:1],{8}4/6,7b-4[8:1],,7/8,{4}1b>7[4:3],
{1}5bh[4:3],
{4}1b/8b-5[8:1],{8}8/2,3b-8[8:1],,3/4,{4}5b<3[4:3],
{1}1bh[4:3],
{4}7-4[8:1]/2-5[8:1],2/7,{8}1-5[8:1],8-6[8:1],1,8,
3-1[8:1],4-8[8:1],3,4,{16}3,4,5,6,7,8,1,2,
{4}3-6[8:1]/7-2[8:1],3/7,4-8[8:1]/8-4[8:1],4/8,
{8}1,1,1-3[8:1],1-7[8:1],1-4[8:1],1-6[8:1],1-5[2:19],1,
{1},,,,,,,{8}2,
2,8h[16:1],1h[16:1],2,8,{4}1-5b[8:1],
1b,{8}4/3,4/2,,6/5,{4}4/7,
{8}2/5,{16}2/5,3/6,{4}7h[8:1]/4h[8:1],6-1[8:1]/5-2[8:1],6/5,
{8}3b/4b,2,5,3b/4b,,7/8,{4}6b/1b,
{12}1,2,3,4,5,6,7/2,3,4,5,6,7,
{4}8/1,{8}5/6,5/7,,3/4,{4}5/2,
{8}7/4,{16}7/4,6/3,{4}2h[8:1]/5h[8:1],3-8[8:1]/4-7[8:1],3/4,
{8}6/3,4,5,3/6,,4/5,{4}6b/3b,
{8}7/2,{16}7/2,3/6,{4}4-8[8:1]/5-1[8:1],5<8[8:1]/4>1[8:1],5b/4b,
{2}Ch[4:1],{6}5/B2/B3/E3,5,5,
5/E8/B7/B8,5,5,5/B2/B3/E3,{12},{4}4h[4:1],
{2}Ch[16:1],{6}4/B7/E7/B6,4,4,
4/B1/E2/B2,4,4,4/B7/E7/B6,{12},{4}3>8[8:1],
5,6<1[8:1],4,3>8[4:1],
8<5[4:1],5>2[4:1],2<7[4:1],7,
5-3[8:1],5-7[8:1],5-1[8:1],5,
5,{8}4/6,4/6,,,{4}2h[4:1],
{2}Ch[16:1],{6}2/E5/A4/B4,2,2,
2/B6/E6/E7,2,2,2/E8/B8/E1,{12},{4}7h[4:1],
{2}Ch[16:1],{6}7/E5/A5/B5,7,7,
7/B3/E4/E3,7,7,7/E2/B1/E1,{24},,{8}1/5,2/6,
{4}3/7,{8}4/8,3/7,{4}6v8[8:1]/2v4[8:1],6/2,
6b/5b,4b/8b,4b/3b,1b/5b,
{2}A3h[1:1]/D4h[6:7]/D3h[3:4]/E4h[2:3]/E3h[3:5]/B3h[6:11],A7h[12:7]/D8h[4:3]/D7h[12:11]/E8h[12:13]/E7h[4:5]/B7h[12:17],
,,Cf,
{32}5/1,2,3,4,{96},,,,{6}5,5,
{32}5/1,8,7,6,{96},,,,{6}5,5,{96}5/1,,,2,,,{32}3,4,,,,,{4}Cfh[4:1],
{32},,,,,,,,,,,,,,,,4/2,1,8,7,{96},,,,{6}4,4,
{32}4/1,8,7,6,{96},,,,{6}4,4,{48}4/8,,,7,,,{16}6,5,4,3,2,1,
{4}8<5[8:1],{8}8/1,2,{4}3>8[8:1],{8}3/4,5,
{4}6-1[8:1],6/5,4/3-8[8:1],3/5,
{8}7-5-8-4[2:1],,,3,{2}3h[4:1],
{6}E8f/B7,B3/E4f,E7/B6f/B2f/E3,E1f/E5f/D5f/D1f,{12},{4}Cfh[4:1],
{32},,,,,,,,,,,,,,,,4/8,7,6,5,{96},,,,{6}4,4,
{32}4/8,1,2,3,{96},,,,{6}4,4,{96}4/8,,,7,,,{32}6,5,,,,,{4}Cfh[4:1],
{32},,,,,,,,,,,,,,,,5/7,8,1,2,{96},,,,{6}5,5,
{32}5/8,1,2,3,{96},,,,{6}5,5,{48}5/1,,,2,,,{16}3,4,5,6,7,8,
{4}1>4[8:1],{8}1/8,7,{4}6<1[8:1],{8}6/5,4,
{4}3>8[4:1],8<5[4:1],5>2[4:1],2,
6b-8[8:1],{8}6b/5b,4,{4}3b-1-4[4:1],4b-8[8:1],
{32}7b,6,{16}5,{32},,,,,,,,,,,,1b/7b,2b/6b,3b/5b,4b,,,,,,,,,,,,,{4}4b/5b,
{8}5/6,4/7b-4[8:1],,7/3,{4}2b-5[8:1],
2b/6b<1[8:1],{8}6/4,3b-7[8:1],,3/4,{4}5b-1[8:1],
5b/8b<5[8:1],{8}8/3,4b-1[8:1],,4/6,{4}7b-2[8:1],
7b/5b-1[8:1],{8}5/4,3b>8[8:1],,3/4,{4}5b,
3b/4b,{8}7/8,8b/6b,,2/1,{4}3b/8b,
5b-1[8:1],5b/7b-4[8:1],7b/3b-8[8:1],3b/5b,
{8}4b/6b,5,4,5b/3b>1[8:1],,5,{4}5,
{16}8b,7,6,5,1b,2,3,4,8b,1,2,3,4,5,6,7,
{8}8b/1b-5[8:1],1,6-8[8:1],6,4,4,{16}1,8,7,6,
{8}5-1[8:1],5,4-2[8:1],4,6,6,{16}8,1,2,3,
{8}4-8[8:1],4,7-5[8:1],7,{4}3b-8b[8:1],3b/7b-4b[8:1],
7b/2b-5b[8:1],2b/6b-1b[8:1],6b/4bw8b[12:1],4b,
{16}1bx,2x,3x,4x,8x,7x,6x,5x,1,8,7,6,5,4,3,2,
{8}1/5,5/1,2/6,6/2,3b/7b<3[8.25##1.625],7b/3b>7[8.125##1.625],3b/7bp3b[12.25##0.125],7b/3bp7b[12.125##0.125],
{1},,,,,,,,,,,,{2}7bx/3bx,
{8}6,4,5,3,
{4}2h[4:1]/4h,{8}5,6h[4:1]/4h,,4,{4}3/5,
{8}2,3,4,5,3,4,5,6,
5/3,{16}4x,4xp8[4:1],{4}4>1[4:1],{8},,,,5h[4:1]/6h[8:1],
,,4h[4:1]/5h[8:1],,,{4}3h[8:1]/4h[8:1],
{8}2x/5x,{16}2x/5x,3/6,{4}7x-4[6:1]/4x-1[6:1],{2}7x/4x,
{8}6,7,8,1,7,8,1,2,
{24}A3,D4,A4,D5,A5,D6,A6,D7,A7,D8,A8,D1,A1/A5,D6,A6,D7,A7,D8,A8,D1,A1,D2,A2,D3,
{4}A3/E4/D4f,6/5,{8}5/3,4,{4}5h[8:1]/6h[1:1],
{8}A8/E8/B8/E1,,,B2/E2/A2/E3,,,{4}E4/B4/E5/A4,
{8}6,4,5,3,5,5,4,6,
{16}5,4,3,2,{4}1q5[8:1],{16}6,7,8,1,2,3,4,5,
{8}6h[4:1]/8h[8:1],,,2h[4:1]/4h[8:1],,,{4}7h[8:1]/5h[8:1],
{8}6h,4h,5h,3h,4h,4h,3h,3h,
2h,6h,3h,7h,4h,8h,5h,1h,
{16}2/6,5/1,4/8,3/7,2/6,1/5,4/8,3/7,{24}6,5,4,3,2,1,{32}8,7,6,5,4,3,2,1,
{1}8-4[2:7],
,,,3-7[2:7],
,,,{8}3h[4:1]/4h[8:1],
,,4h[4:1]/3h[8:1],,,{4}4h[8:1]/3h[8:1],
{1}5/2,
{8}6h[4:1]/5h[8:1],,,5h[4:1]/6h[8:1],,,{4}5h[8:1]/6h[8:1],
{1}4/7,
4w8[4:15],
E
