&title=迷っちゃうわ
&artist=フィロソフィーのダンス
&first=-0.08
&des=Moka
&lv_5=13+
&inote_5=(110){1},,,{4},,{32}1bx-7-5-3[4:1],2x/8x,3x/7x,4x/6xh[32:13],{4},,{16},26,,
4,8qq8pp8[2:1],,{16}5,,,4,,3,,4,,5,,4,,64,64,5v8[32:3]/3,46,,,2,,3,1<6[32:3],2,8,,1,,,
5,1pp1qq1[2:1],,{16}4,,,5,,6,,5,,4,,5,,35,35,4<7[32:3]/6,53,,,8,1w5[32:3],2,3,,1,,,,
{32}Ch[32:1],B7/B3,,,{16},,,
{8}2h[16:5],3>8[32:3],4h[16:3],,5h[16:5],4<7[32:3],3h[16:3],,1h[16:5],8>3[32:3],7h[16:3],,,,C/B6/B2,,7h[16:5],6<1[32:3],5h[16:3],,4h[16:5],5>2[32:3],6h[16:3],,8h[16:5],1<6[32:3],2h[16:3],,,,C/B3/B7,,
{32}7,,4,5,
,,,6,
,,5,,
,,4,,
,,6>3[32:3],8,
,,,,C
,,,,
,,2-6[32:3],,
,,,,
2,,,,
8,,,,
8,,17,,{8},4,28,{16}5V71[8:1],37,
{8},5-3-1-7-5[4:1],,,C,,,{16}5-7v4[16:3],3,,,4,,3,,2-8v3[16:3],5,,,6,,7,,
8V24[8:1],4,{8},8-6-4-2-8[4:1],,,C,,,{16}2v7[32:3],5,,,5>2[32:3],,5,,5,7,,,,,8-2-7-3-6-4b[1:1],,,,{1}8b/C,{4},6pp4b[16:3]/3qq5b[16:3],36,{4},
{48}1,2,3h[8:1],{8},{48}8,7,6h[8:1],{8},{48}2,3,4h[8:1],{8},{48}7,6,5h[8:1],{8},{48}2-8-6-4-2-7-4-1[32:26],3,4h[32:33],{16},2x,,,{4},,,{8},{48}8x/4x,7x/3x,6x/2x,{4},
{16}Chf[16:3],,,B7/B6/B5/B4/B3/B2,,,,,
{16}8V64[32:3],6,,,3V17[32:3],,1,,6V42[32:3],,4,,1V75[32:3],7,,3,,,,1>4[32:3],,{32}7,8,,{16}1,8,{32},{16}7,,{16}6w2[32:3],,,,,,,
{16},6h[32:5]/4,{32},,,{8}8,2h[8:1]/4,8,{32}7,,1qq6[16:5],,,,,13,,,,,{16}4,{32},{16}3,,,2p4[8:1],,1,,2,8,,,6,,1,
1bx/4bx,2bx/5bx,3bx/6bx,,8bx/5bx,7bx/4bx,6bx/3bx,,4b/5b,3b/6b,2b/7b,,,C,,
{16}1V35[32:3],3,,,6V82[32:3],,8,,3V57[32:3],,5,,8V24[32:3],2,,6,,,,8<5[32:3],,{32}2,1,,{16}8,1,{32},{16}2,,{16}3w7[32:3],,,,,,,
{16},3h[32:5]/5,{32},,,{8}1,7h[8:1]/5,1,{32}2,,8pp3[16:5],,,,,86,,,,,{16}5,{32},{16}6,,,7q5[8:1],,8,,7,1,,,3,,8,
37,26,15,,26,37,48,,37,26,15,,,C,,26,26,37,48,,37,26,15,,26,37,48,,,C,,37,,7,
5h[16:3]/7,,,7h[32:3],{32},B7/E7,{16},,,4h[16:3]/2,,,2h[32:7],,4,{32},B2/E3,
{16},1x/8x,,,18,,{4}1s5[16:3]/8z4[16:3],,{8},,2-6[32:3],,7-3[32:3],,,,
{16}1,5pp5qq5[2:1],,{16}8,,,1,,2,,1,,8,,1,,71,71,8v5[32:3]/2,17,,,3,,2,4v7[32:3],3,5,,4,,,
8,4qq4pp4[2:1],,{16}1,,,8,,7,,8,,1,,8,,28,28,17,28,{2},E
