&title=Sargasso
&artist=Aoi
&first=0
&des=μ -depths of the sea-
&lv_5=14
&inote_5=(175)
{1},
{1},
{32}1x-5<7z3>1[4:13]/8x,B8/B1,C1,B5/B4,,,,,{8},,,,,,{1},,,
{16}3h[4:3],,,E2,,,E3,,,E4,,,E5,,,,7h[4:3],,,E6,,,E5,,,E4,,,E3,,,,
{16}1h[4:3],,,E3,,,E4,,,E5,,,E6,,,,6hx[8:1],,,7h[8:1]/5h[8:1],,,3h[8:1],,,2h[8:1]/4h[8:1],,,8b/1b,,,,
{8}3/6pp3[2:1],,,2,2h[2:1],,,,4pp8[2:1],,,1,1h[2:1],,,,
{8}7qq3[2:1],,,2,2h[2:1],,,,4q1<6[8:3],,2,3,B3/B4/C8h[2:1],,,,
{16}5h[8:1],,3,6h[8:1],,4,7h[8:1],,5,6h[8:1],,8,5h[8:1],,1,4h[8:1],,2,8h[8:1],,3,7h[8:1],,4,6,5,6,5,6,,3,4,
{16}2b,5,4,5,3b,6,5,6,{32}2b,3,4,,,,8b,7,6,,,,3,,,,{8}5b<3[8:3],,,,,4,4w8[8:1],,
{8}A4f/D5/D4,,2x,,3x,,4x,,56,7,34,2,3-6[8:1]/7-2[8:1],26,37,,
{16}8b/4b,,,,E8,B7,B6,B5,3>1[8:1],,3,,5,,6,,7,,7h[8:1],,E6,B5,B4,B3,8-4[32:5],,8,,3,,2,,
{16}1,,1h[8:1],,E4,B4,B5,B6,2>4[8:1],,2,,5,,6,,7b,,4,5,3b,6,5,7b,4,6b,3,5b,2-8-4-6[8:3],,,,
{16}6h[4:1],,,,,,,,7p3[8:1],8,,8,7,,,,7,1,,1,7,2,3,4,5h[8:1]/6h[8:1],,,4h[8:1]/7h[8:1],,,38,,
{16}7,5,6,5,7h[8:1],,8x,,2,4,3,4,2h[8:1],,6x,,5,,5,,46,,37,,2-6[8:1]/6,,35,,2/7h[4:1],,,,
{16}1b,,,,E3,B3,B4,B5,7>1[8:1],,7,,4,,3,,E3,B2,B1,E1,E7,B6,B5,E5,1-5[32:5],,1,,6<8[8:1]b,,7,,
{16}6b,,,,E5,B4,B3,B2,7<5[8:1],,7,,4,,3,,2b,4,3,6b,4,5,3b,5,4-8[8:1],7b,5,6,4x,,,,
{16}1b/7b,,,,6,5,6,5,4h[8:1]/7h[8:1],,,4h[8:1]/7h[8:1],,,56,,45,,34,,3,4,3,4,5h[8:1]/2h[8:1],,,5h[8:1]/2h[8:1],,,43,,
{16}2,1,2,1,3,8,3,8,{32}4,5,6,7,8,1,2,3,4,5,6,7,8,1,2,3,{16}4/8bxV26[2:1],,,,,,,,3-5[8:1]b,,4,,3b,,,,
{16}4bx/7bx,,2,1,2,1,3x,4,5,2x,3,4,1>4[8:1],,2,,7h[4:1]/1,,,,5,6,4,5,3,4,3,,6,5,6,,
{16}34,,7,8,7,8,6x,5,4,7x,6,5,8<5[8:1],,7,,2h[4:1]/8,,,,4,3,4,3,5-1[8:1],,2>4[8:1],2,5b,,2b,,
{16}7,5,6,4,6,5,8,7,6,4,3,2,5V71[4:1],,6,,1,,2,,3,3h[8:1],,4,4,,25,,16,,78,,
{16}26,,3,34,,6,65,,37,,56,56,,3/4>5[8:5],34,,C1f/B3/B4,,,,,,,,4-1[8:1]b,,3,,4,,,,
{16}6xpp5[1:1]/2xpp1[2:1],,,,,,,,,,,,,,,,3h[8:7],,,,,,,,4,,,5,,,6,,
{16}6b,,2,1,3,1,2,,7,8,6,8,7,,1h[8:3]b/5b,,,,5<7[8:1],,6,,2,3,4w8[8:1],,3,,4b,,,,
{16}6,5,6,3,4,3,7,6,7,2,3,2,8,1,8<5[8:1],,,,,,3x,2,1,8,4x,3,2,1,5x,4,3,2,
{16}6x,,57,,4,,35,,2,7,3,6,4,5,2b,,8x<4[8:1],,4x>8[8:1],,,,,,E8,E7,E6,E5,E4,,1bxq3[8:27]b/3bx<3[8:27],,
{1},,,,
{1}E8/B7/E7/B6,B3/B4/E4,B1/B2/D2,E6/E5/B5,
{4}8<3[2:3]/4,3,,2,,1,,8,8V25[2:1],5,,6,7<4[4:1],4>1[4:1],1<5[16:5],5,
{8}3qq6[2:1],,,7,7h[2:1],,,,5qq1[2:1],,,8,8h[2:1],,,,
{8}2pp6[2:1],,,7,7h[2:1],,,,5V38>2[8:3],,7,6,B6/B5/C1h[2:1],,,,
{16}3h[8:1],,5,4h[8:1],,6,5,,{32}E3,B3,B4,,E7,B6,B5,,{16}B2/B1/E2,,,,
{16}7h[8:1],,5,6h[8:1],,{32}E4,B4,B5,E6,C1f/B7/B8,,,,,,,,,,,,,,,,,,
{32}2b,3,4h[16:3],,,,,,8b,7,6h[16:3],,,,,,3b,2,1,,,,5b,6,7,,,,3,,,,
{8}6b<4[8:3],,,,,5,5w1[8:1],,
{8}5b<4[1:1]b,,,,,,,,5,6,7,8,1w5[8:1],28,1,,
{16}3b/7b,,,,8/1>4[8:1],,2,,71,,8,8,,6,5h[4:1],,,,1,3,8,2,7,1,6,8,7,5,6,4,5,3,
{16}4-7[8:1],,5,,42,,1,,2,,4,3,,5,6h[4:1],,,,7,6,4,5,2,3,8,7,5,6,1,8,4,5,
{16}3<6[8:1],,2,,63,,7,,8h[8:1],,2,1,,3,4h[4:1],,,,8,6,1,7,2,8,3,1,2,4,3,5,4,6,
{16}1b,2,3/7h[64:1],4,5/8h[64:1],,1b/6h[64:1],2,3/7h[64:1],4,5/8h[64:1],,1b/6h[64:1],2,3/7h[64:1],4,
{16}5x/6b,7,8x/4b,3,2x/5b,6,3b/7x,2,1x/6b,7,4b/8x,3,2/5xw1[8:1]b,,46,,
{16}5b,,,,3/7-5[8:1],,6,,27,,1,1,,3,4h[4:1],,,,8,6,1,7,2,8,3,1,2,4,3,5,4,6,
{16}5>2[8:1],,4,,57,,8,,7,,6,5,7,5,6-2[8:1],,,,3-7[8:1]/6b,,,,5-1-5[4:1]b/3b,,,,3,,3b,,,,
{16}4x/6x,,2x,1,3,8,4,,1x,8,2,7,3,6,4h[4:1],,,,6,,6,5,7,4,8x,3,1h[8:1],,2,3,4,5,8,8,7,7,6,6,5,5,{32}7x,6x,5x,4x,3x,2x,1x,8x,{16}7xpp4[2:1],,2xqq4[8:3]b,,,,,,,,,,,,,,2-5[8:1]/6-1[8:1],,,,
{16}2b/6b,,,,7b/4b,,6,5,7b/4b,,6,5,7b/4b,,7b/4b,,7b/4b,,6,5,7b/4b,,6,5,7b/4b,,6-8-5-1[8:3],5,7b/4b,,4b,,
{16}1b,,2b,,3b,,3,4,2b/5b,,3,4,2b/5b,,2b/5b,,2b/5b,,36,,4b/7b,,6,6b,,4b/5b,,3b,3-1-4<6[8:3],,,,
{16}7hx[4:1],,,,,,,,{24}8x-4[8:1],7,6,{16}2,2,8,,{24}1x-5[8:1],2,3,{16}7,7,1,,{24}6x-2[8:1],7,8,{16}4,4,6,,3,,4,,5,,
{24}4x-8[8:1],3,2,{16}6,6,4,,{24}5x-1[8:1],6,7,{16}3,3,5,,{24}2x,3,4,{16}8,8,
{24}5b,4,3,2/8b,7,6,4b/5,3,2,1/7b,6,5,4b/3b,,,2b/1b,,,8b-4-2[4:1]b/7bV51[4:1],,,1b/6b,,,
{1}B7f,,,,
E
