&title=彁
&artist=LeaF
&first=0.038
&des=こむぎこ
&lv_5=14+
&inote_5=(125){4},{12},,,,,,,,,3bx/6bx,
{24}5,4,5,4,6,3,6,3,5,4,{8}5h[8:1],{24}2,,7,4,6,3,5,2,4,
{10}3h[2:1],{40}E6,E7,E8,E1,{20}E2,E3,{10}E4,C,5h[2:1],{40}2,,,3,,,4,,,6,,,{10}7,
{7}8b,{14}6,6,{7}5/7,1/8<5[0.5486##0.2743],2/4>1[0.5486##0.2743],8,4,
{10}8,{20}2,3,{10}6/4,7,6/4,2>6[0.384##0.192],,2/8p4[0.384##0.192],,8,
{7}1bx,{14}3,3,{7}4/2,8/1>4[0.5486##0.2743],7/5<8[0.5486##0.2743],1,5,
{10}1,{30}7,6,5,4,,,{10}3,2/5,7<3[0.384##0.192],,7/1q5[0.384##0.192],,1,
{7}8b,{14}6,5,{7}4/7,8/1-6[0.5486##0.2743],2/5-2[0.5486##0.2743],1,5,
{10}1,{20}8,1,{10}8,5/2,3/6,4/7>2[0.384##0.192],,7/3<6[0.384##0.192],,3,
{5}1bx,8x,{10}7x,6x,{40},{8}E2,C,E6,
{4}1/8-4[8:1],8/2-5[8:1],2/7-4[8:1],7/1-5[8:1],
{8}1/7p3[8:1],8,7/1q5[8:1],2,{4}1/8p4[8:1],8/2>5[16:1],
{10}2b/1b,{20}7,8,{10}7,5/4,3x/7x,5x>2[0.384##0.192]/1x<6[0.384##0.192],,5/1,,4/8,
{5}4V68[0.384##0.192]/8V24[0.384##0.192],8/4,{10}2/5,3b/4b,{70},,,{14}E2,E1,E8,,E7,
{4}1x-5[8:1],1/7-4[8:1],7/2-5[8:1],2/8-4[8:1],
{8}8/2q6[8:1],1,2/8p4[8:1],7,{4}8/1q5[8:1],1/7<4[16:1],
{10}7b/8b,{20}2,1,{10}2,4/5,6x/2x,4x<7[0.384##0.192]/8x>3[0.384##0.192],,4/8,,5/1,
{5}5V31[0.384##0.192]/1V75[0.384##0.192],1/5,{10}7/4,6b/5b,{70},,,{14}E8,E1,E2,,C,
{1}6xp4b[4:7]/2xp8[4:5],
{7},,,,,,,3h[2:1],
B4,5h[7:2],,,B4,5h[7:2],
4h[2:1],,B5,6h[7:2],,5,5,
6h[2:1],B5,4h[7:2],,,B5,4h[7:2],
5h[2:1],,B4,3h[7:2],,4,4,
5/3xh[8:1],,6,{14},4xh[8:1],7,,,,{7}8,
5xh[8:1],1,{14},,2,6xh[8:1],,,{7}3,C,
{14}6b/4b,{28}2,1,2,1,{14}2,5/3,{28}7,8,7,8,{14}7,{28}1,2,3,4,6,7,8,1,3,4,5,6,
1,8,7,6,{14}5/4,{28}3,4,2,4,{14}3,5/4,{28}6,5,7,5,{14}6,{28}1,2,3,4,2,3,4,5,
{20}D4,B4,D8,B8,{10}C,{20}D6,B5,D2,B1,{10}C,{40}1x,2x,3x,8x,7x,6x,{20}1h,2h,3h,5h,6h,
7h,3h,4h,6h,5h,2h,3h,7h,6h,5h,{40},,2,3,4,5,6,7,{20}8,4,1,5,2,6,
{14}5b/3b,{28}7,8,7,8,{14}7,4/6,{28}2,1,2,1,{14}2,{28}8,7,6,5,3,2,1,8,6,5,4,3,
8,1,2,3,{14}4/5,{28}6,5,7,5,{14}6,4/5,{28}3,4,2,4,{14}3,{28}8,7,6,5,7,6,5,4,
{20}D6,B5,D2,B1,{10}C,{20}D4,B4,D8,B8,{10}C,{40}8x,7x,6x,1x,2x,3x,{20}8h,7h,6h,4h,3h,
2h,6h,5h,7h,3h,4h,2h,5h,4h,6h,{14}8x/1x,{28}2x-5[0.2743##0.1371],1x,{14}2x,2x/1x,{28}7x,8x,{14}7x,1x/8x,
1b/8b,{28}3,4,2,5,{14}3,5/4,{28}6,5,7,4,{14}6,{28}2,3,4,5,7,6,5,4,1,2,3,4,
{20}6,5,7,5,6,4,5,3,4,2,{40}8,7,{20}6,4,5,4,{40}7,6,{20}5,{40}2,3,{20}4,5,
{7}4,4b/2b,5b/7b,{14}3b/4b,5b/4b,{7}5b/6b,5b/4b,6b/3b,
{20}4b,6b,2b,8b,{40},,7,6,5,1,2,3,,8,7,6,{14}5/4,{28}2,1,2,1,2,1,2,1,2,1,{14}2,
6b/5b,{28}7,5,6,4,{14}5,4/3,{28}2,4,3,5,{14}4,{28}7,6,5,4,2,3,4,5,8,7,6,5,
{20}3,3,4,4,{40}2x,3,,6x,{20}5,{40}1x,2,,7x,{20}6,{28}4,3,2,5,6,7,1,2,3,8,7,6,2,3,
{14}4/5,7b/3b,,6b/2b,,5b/1b,{28},,3b/4b,,,1b/8b,,,{7}6b/5b,7b/3b,
{20}6h,4h,8h,3h,5h,1h,4,2,5,3,{14}6,{28}7,8,7,8,7,8,7,8,7,8,{14}7,
{56}E2,E3,E4,E5,{4},{16},,{64},,,{448},,,{8}B8,B2,B6,B4,
{32}E7,B6,{16}B5,{32},,,,,B7/E7/B6/B2/E3/B3/Ch[32:7],{4},{112},{42}7x,8x,7x,8x,7x,8x,7x,8x,7x,8x,7x,8x,7x,8x,7x,8x,7x,8x,
{7}7x,,E1,6,E2,6,E3,
7,E4,7,E5,8,C/8-4[0.5486##0.1371],,8b/Cf/2b-6[0.5486##0.1371],
,2b/C/7b-3[0.5486##0.1371],,7b/C/4b-8[0.5486##0.1371],,4b/C/6bv3[0.5486##0.1371],
,6b/C/2bv7[0.5486##0.1371],,2b/C/5bv8[0.5486##0.1371],,5b/C/1bV72pp3b[0.5486##3.5657],,E8,
,E7,,E6,,E5,
,E6,,E7,,E8,{84},,,,,,,,,,,,{12}7b/4b,
{24}6,5,6,4,5,4,6,5,{12}6,{24}2,4,3,5,4,6,{12}5,{24}8,1,{12}8,
7/2,{24}8,1,8,2,1,2,8,1,{12}8,{24}2,3,4,5/8,7,6,{12}5/2,{24}4,3,{12}4,
2b/5b,{24}3,4,3,5,4,5,3,4,{12}3,{24}7,5,6,4,5,3,{12}4,{24}1,8,{12}1,
2/7,{24}1,8,1,7,8,7,1,8,{12}1,{24}7,6,5,4/1,2,3,{12}4/7,{24}5,6,{12}5,
7b/4b,{24}6,4,6,5,7,5,6,4,{12}6,{24}2,5,3,6,4,7,{12}5,{24}8,1,{12}8,
7/2,{24}8,2,8,1,7,1,8,2,{12}8,{24}2,3,4,5/8,7,6,{12}5/2,{24}4,3,{12}4,
2b/5b,{24}3,5,3,4,2,4,3,5,{12}3,{24}7,4,6,3,5,2,{12}4,{24}1,8,{12}1,
2/7,{24}1,7,1,8,2,8,1,7,{12}1,{24}7,6,5,4/1,2,3,{12}4/7,{24}6,5,{12}6,
{7}Ch[8:1],,5,{14},C,5,{140},{20}C,{16},,{64},,{1120},{7}5,
{20}3,3,4,2,6,6,5,7,3,3,5,{40}2,3,4,8,7,6,1,2,3,7,6,5,2,3,4,7,6,5,
{7}1-4[0.5486##1.0971],,E1,,C,,E5,
{20}6,6,5,5,{40}7x,6,,3x,{20}4,{40}8x,7,,2x,{20}3,{28}5h[28:3],,,4h[28:3],{84},,,,,,{42}5qq2[0.5486##2.88],6,7,8,1,2,3,4,5,6,7,8,
{1}1h[1:1],
{20},,,,,,,,,,8,8,{40}1,2,3,8,7,6,{20}4,4,5,5,4,
{40},,2,3,4,8,7,6,{20}2,2,5,5,3,3,{40},,8,7,6,1,2,3,{20}5,4,6,4,5,3,
5,4,{40}7,6,5,2,3,4,7,6,5,1,2,3,8,7,{20}6,{28}4h[28:3],,,5h[28:3],{84},,,,,,{42}4pp7[0.5486##2.88],3,2,1,8,7,6,5,4,3,2,1,
{1}8h[1:1],
{20},,,,,,,,,,1,1,8,8,2,2,{40}8,7,6,1,2,3,,,,,7,
6,5,1,2,3,{20}7,7,4,4,6,6,{40},,1,2,3,8,7,6,{20}4,5,3,5,4,6,
4,5,{40}2,3,4,7,6,5,2,3,4,8,7,6,1,2,{20}3,{28}5h[28:3],,,4h[28:3],{84},,,,,,{42}8,7,6,5,4,3,2,1,8,7,6,5,
{7}4<3[0.5486##3.2914],,E1,,C,,E5,
,E7,,E3,,C,
E
