&title=Cryogenic
&artist=かめりあ,Petra Gurin
&first=0.1035
&des_1=xht350
&des_2=xht350
&des_3=xht350
&des_4=xht350
&des_5=xht350
&lv_5=14+
&des_6=xht350
&des_7=xht350
&des=xht350
&inote_5=(145)
{16},,,,,,6h[8:1],,3,,2v5[8:1],,6h[8:1],,,,
{8}6<1[4:1],4,3v8[4:1],2h[16:3],,,3,4,
{8}3/5<8[4:1],4,3,{16}2,,3,4,,6,5>7[1:1],6,,,
{8},,E6,E5,E4,,C,,
{8}5h[4:1],7-3[8:1],{16},5,,6q4[4:1],,,,,,,,,
{8}1-7[16:1],,14,,1-3[16:1]/6,,14,,
{16}4-7[12:1],3,5,,4-1[12:1]/8,,8h[16:1],,{8}4/7<4[8:1],,78,1h[4:1],
{8}5qq8[2:1],,5,,,,2,5hb[8:1]/7hb[8:1],
{24},,8b/4h[12:1],7,6,,2b/5h[12:1],3,4,6,7,8,
{24}1/4,3,2,{32}18,7,6,5,4,3,2,1,8h[8:1],,,,
{4}4xz8>1z5<3[4:15],,,,,,,,
{6}E1,B8,B7,,,,E7h[8:5],,,,,,
{8}8h[1:1],,B2/E3/B3,,,,B6/E7/B7,,
{8}5,5,5,5,{16}5,6,5,6,5,6,5,6,
{32}4,3,2,1,8,7,6,5,4,3,2,1,8,7,6,5,4,3,2,1,8,7,6,5,4,3,2,1,8,7,6,5,
{32}4,3,2,1,8,7,6,5,4,3,2,1,{16}7x,8x,7x,8x,6,1,5-1[12:1],2,4,3,
{8}2bv4<5[4:1]/5b,,8-3[8:1],7,8<5[8:1],4,8/2-6[8:1],1,
{8}26,7,8,1h[6:1],{24}2,3,4,5w1[12:1],1,2,3,4,,,,,
{32}A1,D2,A2,D3,A3,D4,A4,D5,
{8}A5/D6,7>1[8:1],6,5/7<4[8:1],{16}3-7[8:1],2,17,,
{8}3x,4h[16:1],1/5qq7[2:1],24,5,B4/E4/B3,,{16}8,1,
{16}2,3,4,5,67,,5,8,{8}5-3[8:1],7,5-2[8:1]/6,7,
{8}58,{16}7,7h[6:1],{24}1,2,3,4,8,1,2<7[8:1],3,4,5,6,,{16}2x,,5,5x,
{8}4/6<3[4:1],3,36,4,4>7[4:1],,47,6,
{8}6-4[8:1],3,2>5[8:1]/6-1[8:1],,2b-7[8:1]/6b-3[8:1],,2b/6b,,
{8}15,5-7[8:1],5,1>4[8:1]/5,8,1/7-3[8:1],8,
{8}73,2,1,8h[6:1],{24}7,6,5,4w8[12:1],8,7,6,5,,,,,
{32}A8,D8,A7,D7,A6,D6,A5,D5,
{8}A4/D4,2<8[8:1],3,4/2>5[8:1],{16}6-2[8:1],7,82,,
{8}6x,5,8/4pp2[2:1],75,4,B5/E6/B6,8hx[4:1],,,
{32}A1,D2,A2,D3,A3,D4,A4,D5,
{8}A5/D6/8,8-5[8:1],8-3[8:1],8,8x,{32}5xqq2[2:1],6x,7x,8hx[8:1],
{8},,{32}1,8,7,6h[16:1],,,,,{8}7,8<5[12:1],,{32}4/8b,3,2,1,
{8},4,5/3>6[4:1],6,63,,5<2[4:1],5,
{8}2p5[4:1]/5,3,5p1p5[2:1],4,3,2,2,3,
{8}4hx[8:15],,,,{16}B5,E6,,,E3,,1x>7[2:1],,
{8},,,,,,8-2p6p4[8:7],8,
{8}E5,E4,E3,,1x,,{16},,3,3>8q4[16:11],
{1},
{16}6,5,6,5,6,5,6,5,7,4,7,4,7,4,7,4,
{16}8,3,8,3,8,3,8,3,1,2,1,2,1,2,1,2,
{16}8,3,7,4,6,4,5,3,4,2,5,1,6,8,7,1,
{1}1b-3[36.25#32:1]*<6[32.22#36:1]*v4[29#40:1]*p5[26.36#44:1],
{8}1,1,1,1,,,,,
{16}7,5,6,3,1-4v7[6:1],2,8,3,{12}1,2b,,{16}2,3,46,,
{24}6,7,8,1qq7[8:1]/2,,,3,,,{16}4qq2[8:1],,,,8z4[4:1],,8,,,,
{8}E4/B3/B4,{16}2,5,2,,4,6,4-8[8:1]*<7[8:1],,,,4,,,,
{8}1,7,{16}4s8[4:1],4,,,7v5[8:1],,,,,,1h[16:1],,
{16}2,4,3,6,8-5v2[6:1],7,1,6,{12}8,7b,,{16}7,6,53,,
{24}3,2,1,8,,,6,,,{16}17,17,{4}8x-5<7-4[8:3]*-3>1-4[8:3],8,
{8},,1<6[8:1],6q2[8:1],1,,5hb[16:1],3b/7b,
{24},,2b/8b,37,46,,5,46,37,2,1,8,4b/7,5,6,
{32}78,1,2,3,4,5,6,7,8h[8:1],,,,
{4}7x-1-6-4-7b[4:6],,,,,,,,
{16}1h[8:1]/8h[16:1],,7-4[290#8:1],7,,2-6[290#8:1],2,,
{16}5,,,7/8-3[290#8:1],,6-1[290#8:1],6,,
{16}2v5[290#8:1],,8-4[290#8:1],,8,2-6[290#8:1],,2,
{16}5v8[290#8:1],,5,4<7[290#8:1],,4,1-5[290#8:1],,
{16}1x/8x,,6,6,5-2[290#8:1],,,6,,6-1[290#8:1],,3-7[290#8:1],3,,8,,
{16}68,,57,,{24}46,3,2,1-5[290#8:1]/5,6,7,
{8}81,7,{32}46,3,2,1,8,7,6,5,
{16}4b/8b<5[290#8:1],,,,2-7[290#8:1],2,,6v3[290#8:1],
{16}6,,8,8>3[290#8:1],8,,4,4<7[290#8:1],
{24}4,,8,1,2,3h[12:1],{16},,25,,4/7<4[290#8:1],,,,2,,13,,
{4}6h[4:1]/8h[4:1],{24},,,8,6,8,6,8,6,8,6,8,6,8,6,8,6,8,
{24}6b,5,4,1b,2,3,7b,6,5,2b,3,4,{8}8hx[4:1],A4,A3,A2,
{8}E6h[2:1],B1,E3,{16}B4,E5,,3x-8q5[16:5],,,E6,,E8,,
{4}7x,4x-8[12:1]/8<5[12:1],4b-7[12:1]/8b>3[12:1],48,
{8}4h[8:3]/6h[8:3],,,,{32}46,3,2,,{8}6,6,6,
{32}78,1,2,,{8}7,7,{32}7-3[4:1],6,5,4,3,2,1,8,{8}7,,,
{8}2-8[12:1]/4,15,24,{24}4-7-3[4:1],5,6,7,8,1-6-4[6:1]/4,{8},1,A3,
{8}2,{24}3x/4x,2,1,{16}8-3[12:1],4,4,,
{24},,{48}4bz8[4:1]*-8b[4:1],5x,6x,7x,8x,1x,2x,3x,{4}4x,
{8},,1-6[8:1]/7,1,5-1[8:1],5,2-5[8:1],2,
{16}8,8,,,{24}1h[16:1]/7h[16:1],,,,2h[16:1]/6h[16:1],,,
35,,{8}26,{32}1,5,1,5,2,6,2,6,
{32}E3/E7,B2/B6,B1/B5,E1f/E5f,
{16},,7,8,7,8,4,3,5,2,6,3h[16:1],1,,
{16}2,1,2,1,38,,56,,{24}3,24,,{16}1,1,7,7,{24}8,7,1,
{16}6b-1[8:1],,6,,4-8[8:1]/6b,3,3,,4b/7-3[8:1],6,6,,7b/8v5[8:1],1,1,,
{16}5b/8b,,7,,8-4[8:1]/4-2[8:1],3,7,,48,,,1x,{32}5,6,7,8,1,2,3,4,
{16}2b/5-1[8:1],,3,,45,,2,2,8,8,,5,,4q1[8:1]/6q2[8:1],46,,
{16}46,,,,8hx[8:1],,1,7,{24}1,28,,{16}7,7,{24}5-2[8:1],6,4,{8}7-4[8:1],
{8}5,7,1h[2:1],3,3h[8:1],,{24}3,4,5,16,2,3,
{24}4,5,67,{16},58,58,,{8}14,38,{32}17,8,7,6,51,48,37,26,15,4,3,2,
{4}1bx,{8},{16}18,18,{8}2b/7b,,3h[4:1],,
{16}8,2,{24}7,6,5,{16}1,6,{24}2,3,4,
{16}6,4,{24}6,7,8,{16}4,8,{24}4,3,2,
{24}1-3-8-5[4:1],8,7,6,5,4,{4}13,2h[8:1],{8}2x,1-7[8:1]/3-7[8:1],
{8}2,1-5[8:1]/3-5[8:1],,13,,1/3h[8:1],{32}1,8,7,6,1,8,7,6,
{8}1x/5hx[2:1],,,,,5b/6b,{16}4b,7,3b,8,{24}2b,1,2,1,2,1,{16}3,8,
{24}4b,7,4,7,4,7,{8}5h[4:1],{32}8z4[4:1],1,2,3,4,,6,7,
{8}48,,,{24}E2/B1/B2,,,,,E6/B5/B6,,,,
{8},{4}E4h[8:7],E6h[8:5],E3h[8:3],{24}E7hf[8:1],,,,,,
{32}1b<5p8[4:1]/8b>4q1[4:1],27,36,45,
E
