&title=Fairy Ring
&des_3=bbben
&des_4=NekoMuseigen
&des_5=NekoMuseigen
&des=NekoMuseigen
&artist=葉月ゆら
&wholebpm=95
&first=0
&MusicStart=67.8
&MusicEnd=82.8
&lv_3=5
&lv_4=10
&lv_5=12
&inote_3=(95)
{1},
{8},,,
{4}1,,,1,,,1,,,18,,,
{4}8,,,8,,,8,,,18,,,
{4}1-4[4:2],,,,,,8-5[4:2],,,,,,
{8}36,,,36,,,36,,,5,,,71,,,82,,,1-5[4:2],,,,,,
{8}7,,,1,,,7,,,1,,,
{8}8,,,1,,,8,,,1,,,
{4}1-4[4:2],,,,,,8-5[4:2],,,,,,
{8}36,,,36,,,
{8}3-1[8:1],,,,,,6-8[8:1],,,,,,
{8}3-8[8:1],,,,,,6-1[8:1],,,,,,
{8}3-1[8:1],,,,,,6-8[8:1],,,,,,
{8}3-8[8:1],,,,,,6-1[8:1],,,,,,
{8}4-1[8:1]/5-8[8:1],,,,,,
{8}1,,,2,,,3,,,47,,,8,,,7,,,6,,,52,,,
{8}8,,,7,,,6,,,52,,,1,,,2,,,3,,,47,,,
{8}2qq4[4:4]/7pp5[4:4],,,,,,,,,,,,
{8}4qq8[4:4]/5pp1[4:4],,,,,,,,,,,,
{8}2qq4[4:4]/7pp5[4:4],,,,,,,,,,,,
{8}4qq8[4:4]/5pp1[4:4],,,,,,,,,,,,
{8}18,,,27,,,36,,,,,,
{8}18,,,17,,,36,,,,,,
{8}18,,,27,,,36,,,,,,
{8}18,,,1h[8:6]/7,,,,,,6,,,
{8}7h[8:6]/4-1[8:4],,,,,,,,,,,,
{8}1,,,2,,,3,,,47,,,8,,,7,,,6,,,52,,,
{8}8,,,7,,,6,,,52,,,1,,,2,,,3,,,47,,,
{8}3h[8:6]/5-8[8:4],,,,,,,,,,,,
{8}1,,,2,,,3,,,47,,,8,,,7,,,6,,,52,,,
{8}8,,,7,,,6,,,52,,,1,,,2,,,3,,,47,,,
{8}45,,,63,,,2h[8:6]/7h[8:6],,,,,,,,,8b,,,
{4}1,,,1,,,1,,,18,,,
{4}8,,,8,,,8
{16},,,,,,,1pp5[4:3]/8qq4[4:3],,,
{4},,,,,,,,,,,,E
&inote_4=(95)
{1},
{8},,,
{16}
5b/6h[16:6],,,,4,,2h[16:6],,,,4,,6h[16:6],,,,3,,1h[16:4],,,,5,,
1b/5h[16:4],,,,4,,7h[16:4]/3,,,,,,6/1h[16:4],,,,,,5h[16:4]/4,,,,,,
1b/2h[16:6],,,,8,,6h[16:6],,,,8,,2h[16:6],,,,7,,5h[16:4],,,,1,,
5b/1h[16:4],,,,8,,3h[16:4]/7,,,,,,2/5h[16:4],,,,,,3h[16:4]/6,,,,,,
{16}
4h[16:3]/5b,,,8,,,75,,64,,53,,4h[16:3]/2,,,1,,,24,,35,,46,,
5h[16:3]/7,,,8,,,75,,64,,53,,4h[16:3]/2,,,1,,,24,,35,,46,,
5h[16:3]/7b,,,8,,,74,,63,,52,,4h[16:3]/1,,,1,,,52,,36,,47,,
5/8<5[8:1],,,,,,4>1[8:1],,,,,,8-4[8:1],,,,,,2,,2,,1,,
1b/8b,,7,5,7,,56,,45,,34,,21,,3,4,3,,45,,56,,57,,
78,,6,5,6,,45,,34,,24,,18,,2,4,2,,53,,46,,57,,
5b/4b,,3,1,3,,12,,81,,78,,65,,7,8,7,,81,,12,,13,,
34,,2,1,2,,81,,78,,68,,54,,6,8,6,,87,,81,,12,,
8h[16:1]/3h[16:1],,1h[16:1]/6h[16:1],,4h[16:1]/7h[16:1],,
1b/3b,,6b/8b,,4b/5b,,
27,,1,8,1,,7/2>5[16:2],,,,,,6,,6,8,6,,1/7<4[16:2],,,,,,
3,,3,1,3,,8/2>5[16:2],,,,,,7,,7,8,7,,1/6<1[16:2],,,,,,
3,,4,5,4,,3/6v1[16:2],,,,,,2,,3,4,3,,5/3v8[16:2],,,,,,
7,,6,5,6,,4/6-2[16:2],,,,,,3h[16:2],,4,3,25,,2h[16:2],,4,2,15,,
3pp7[16:5]/7,,,,,,8b,,,,,,
6h[16:4]/3,,,4,4,,2>5[16:2]/5,,7,,8,,
7h[16:4],,,5,5,,64,,78,,2,,
3h[16:4]/6,,,5,5,,7<4[16:2]/4,,2,,1,,
2h[16:4],,,4,4,,35,,21,,7,,
2h[16:4]/7,,,8,8,,6<1[16:2]/1,,3,,4,,
3h[16:4],,,1,1,,28,,34,,6,6,
2-4[16:2],,,,8,,7-4[16:2],,,,1,,
2-5[16:2],,,,7,,6-1[16:2],,,,,,
4-8[8:8],,,,,,,,,,,,,,,,,,,,,,5,,5b-1[8:8],,,,,,,,,,,,,,,,,,,,,,,,
2b-6[8:8],,,,,,,,,,,,,,,,,,,,,,8,,8bqq4[8:8],,,,,,,,,,,,,,,,,,,,,,1,,
1h[16:3],,,8,1-5[16:2],,7,,6,,7,,8h[16:3],,,1,8-4[16:2],,2,,3,,2,,
1h[16:3],,,8,1q5[16:2],,5,,6,,7,,8h[16:3],,,1,8p4[16:2],,4,,3,,2,,
1b>4[8:1],,8,,7,,6-2[8:1],,4,,4,,
4b>1[8:1],,5,,6,,7-3[8:1],,1,,1,,
1b,,2,4,2,,37,,6,5,6,,
38,,2,1,2,,45,,1,7,1h[8:1],,
8,8,4,4,7,7,3,3,6,6,2,2,5h[8:3],,,,,,,,,,,,
{16}3,,,2,4h[8:4],,3,,3,,3,,
3,,,3,7h[8:4],,2,,2,,2,,
4,,,7,5h[8:4],,6,,6,,6,,6,,,6,8h[8:3],,7,,7,,7,,
8,,,2,5h[8:4],,4,,4,,4,,2,,,2,5h[8:3],,4,,4,,4,,36,,2,4,2,,45,,7,5,7h[8:1],,
3,4,2,4,1h[8:1],,6,5,7,5,8h[8:2],,4h[16:3],,,8,4,7,3,6,2,5,1,,
5b/1b,,3,7,3,,1b/5b,,,,,,
2h[16:4]/7,,,8,8,,6<1[16:2]/1,,3,,4,,
3h[16:4],,,1,1,,28,,34,,6,,
7h[16:4]/2,,,1,1,,3>8[16:2]/8,,6,,5,,
6h[16:4],,,8,8,,71,,65,,3,,
6h[16:4]/3,,,4,4,,2>5[16:2]/5,,7,,8,,
7h[16:4],,,5,5,,64,,78,,2,2,
6-8[16:2],,,,4,,3-8[16:2],,,,5,,
6-1[16:2],,,,3,,4-8[16:2],,,,,,
{8}5bw1[8:2],,,,,,4w8[8:2],,,,,,5-1[8:2]/4-8[8:2],,,,,,
{16}
4b/3h[16:6],,,,5,,7h[16:6],,,,5,,3h[16:6],,,,6,,8h[16:4],,,,4,,
8b/4h[16:4],,,,5,,2h[16:4]/6,,,,,,3/8h[16:4],,,,,,4h[16:4]/5,,,,,,
8b/7h[16:6],,,,1,,3h[16:6],,,,1,,7h[16:6],,,,2,,4h[16:4],,,,8,,
{64}2b/7h[8:2],,,,,,,,,,,,,,,,4h[64:28],,,,,,,,,3,,,,,,,,,,,,,,,,,,,6h[64:48],,,,,,,,,,
7,,,,,,,,,,,,,,,,,,,,,,,8,,,,,,,,,,,,,,,{4}1bqq5[8:10]*pp5[8:10],,,,,,,,,,,,E
&inote_5=(95)
{1},
{8},,,
{16}
6b/3h[16:3],,,5,3,4,2h[16:4],,,,4,,5,4,6h[16:6],,,5,5,,,,
3,4,2b/5h[8:2],,1,,8h[8:4],,1,,7,,6,,5,,4q8[8:1],,3,,2h[16:4],,,,,,
1b/7h[16:3],,,8,7,1,6h[16:4],,,,5,,4,5,3h[16:6],,,4,4,,,,
5,4,6b/3h[8:2],,7,,8h[8:4],,7,,1,,2,,3,,4>1[8:1],,5,,6h[16:3],,,,6,,
{16}
3b/8b,,,4,,5,3>8[8:1],,4,,4,,5h[16:3],,,4,5,,6<1[8:1],,5,,5,,
4h[16:3],,,6,4,,3p7[8:1],,4,,4,,5h[16:3],,,2,5,,6q2[8:1],,5,,5,,
4h[16:3],,,8,4,,3qq1[16:2],,7,,7,,6h[16:3],,,2,6,,5pp7[16:2],,3,,3,,
2>5[16:3],,,,1,,8q4[16:3],,,,7,,6>3[16:3],,,2,,2,1,,1-5[16:1],,1,,
1b/5b,,6,4,6h[16:2],,5q1[16:2],,4,,3,,2,,2,8,2h[16:2],,1q5[16:2],,8,,7,,
6<8[16:1],,6,4,6,,3>1[16:1],,3,5,3,,6h[16:2],,8,6,3,4,2>5[16:2],,
1,,8,,7,,6,6,1h[16:2],,4v7[16:2],,8,,1,,2,,3,3,6h[16:2],,
5qq2[16:6],,6,,7,,8,,1,,8,,7-5[16:1],,,1,7,,2>5[16:2],,,7,,6,6<1[16:2],,4,,3,,
2,2,4,3,5,4,5-1[16:1]/6,,24,,58,,
73,,2-6[16:1],8,2,,6b/2b,,7,5,7h[8:1],,
4,,4-8[16:1],,3,,2b/4b,,1h[16:2],,6,6,
2,5,3-7[16:1],4,3,,3b/7b,,6,5,7h[8:1],,2,2,
8-4[16:1],3,1,2,8b/4b,,2,1,3,8,4h[8:1],,
6-2[16:1],4,6,,6b/2b,,3,1,3h[8:1],,
8,,8-4[16:1],,7,,6b/8b,,5h[16:2],,3,,
52,,1-5[16:1],,8,7,1b,,6,,4h[8:1],,7,7,
4,5,2,4,8b,8,6,5,1,3,7qq3[16:5],,,,,,1b,,,,,,
6h[16:3]/3,,,5,4v7[16:1]/7,,2>5[16:1]/5,,1,,2,,
7h[16:3],,,5,4-8[16:1]/6,,35,,4,,2,2,
7h[16:3],,,4,5v2[16:1]/2,,7<4[16:1]/4,,8,,7,,
2h[16:3],,,4,5-1[16:1]/3,,64,,5,,8,8,
2h[16:3],,,1,8v3[16:1]/3,,6<1[16:1]/1,,5,,6,,
3h[16:3],,,1,8-4[16:1]/2,,71,,8,,6,6,
2-4[16:1],,,8,2,,7-4[16:1],,,1,7,,
2>5[16:2],,,7,7,,6>2[16:2],,,,,,
1bpp4[8:8],,,,,,,,,,,,,,,,,,,,,,7,7,7bqq4[8:8],,,,,,,,,,,,,,,,,,,,,,,,
2bpp6[8:8]*<7[8:4],,,,,,,,,,,,,,,,,,,,,,5,5,5bqq1[8:8]*pp7[8:4],,,,,,,,,,,,,,,,,,,,,,7h[8:1],,
1b>4[16:1],,,8,1q5[16:1],,7,,61,,7,,8<5[16:1],,,1,8p4[16:1],,1,,83,,1,,
2b>5[16:1],,,8,2-6[16:1],,1,,27,,8,,7b-3[16:1],,,1,7<4[16:1],,8,,72,,3,,
4b<7[8:1],,1,2,3qq8[8:2],,3,,5,,6,,
7b<4[8:1],,3,2,1pp4[16:4],,1,,5,,6,,
7-5[16:1],,8,2,7,,2-4[16:1],,1,6,2,,
7<5[16:1],5,8,3,7,,2>4[16:1],5,8,6,2,,
8,8,6,7,2,4,3,3,6,5,4,3,4h[8:3],,,,,,,,,,,
{48},,
{48}
2,3,4h[4:1],,,,,,,,,,,,,,,,3,4,5h[4:1],,,,,,,,,,,,,,,,
4,5,6h[4:1],,,,,,,,,,,,,,,,8,7,6h[4:1],,,,,,,,,,,,,,,,
7,6,5h[4:1],,,,,,,,,,,,,,,,6,5,4h[4:1],,,,,,,,,,,,,,,,
2,3,4h[4:1],,,,,,,,,,,,,,,,3,4,5h[48:17],,,,,,,,,,,,,,,,,
{16}1,,,2,4h[8:4],,3,,3,,3,,
8,,,2,5h[8:3],,4,,4,,4,5,36,,2,4,2,,45,,7,5,7h[8:1],,
3,4,2,4,1h[8:1],,6,5,7,5,8h[8:2],,4h[16:3],,,8,4,7,4,6,4,7,4,8,
6/2b,,5/1b-5[16:1],,4/8b,,5/1b,,,,,,
6h[16:2]/3,,5,6,4-8[16:1]/7,,2v5[16:1]/5,,3,,2,,
7h[16:2],,4,7,6-2[16:1]/3,,51,,26,,1,1,
5v2[16:1],,6,4,5,,3-7[16:1],,1,4,3,,
6b,6,5,4,3,3,1b,1,2,3,4,4,
8h[16:2],,2,8,1-5[16:1]/6,,3>8[16:1]/8,,4,,3,,
6h[16:2],,1,6,7-3[16:1]/2,,84,,37,,4,4,
6<8[16:1],,5,5,6>3[8:1],,3,,3,2,1h[8:1],,
7,7,5,5,3,3,2,4,1,8,5,6,
{8}4bpp4[8:3]*qq4[8:3],,,,,,5q2[8:3]/6p1[8:3],,,,,,5p1[8:3]/4q8[8:3],,,,,,
{16}
2b/7h[16:3],,,1,7,8,6h[16:4],,,,8,,1,8,2h[16:6],,,1,1,,,,
7,8,6b/1h[8:2],,5,,4h[8:4],,5,,3,,2,,1,,8q4[8:1],,7,,6h[16:4],,,,,,
5b/3h[16:3],,,4,3,5,2h[16:4],,,,1,,8,1,7h[16:6],,,8,8,,,,
1,8,
{64}2b/7h[8:2],,,,,,,,3,,,,,,,,4h[64:28],,,,,,,,,3,,,,,,,,,5,,,,,,,,,,6h[64:48],,,,,,,,,,
7,,,,,,,,,,8,,,,,,,,,,,,,1,,,,,,,,,,,,,,,{4}2b-6[8:10]*-6[8:10],,,,,,,,,,,,E
