&title=モア!ジャンプ!モア!モア!ジャンプ!モア! (feat. 花里みのり&桐谷遥&桃井愛莉&日野森雫&初音ミク)
&artist=ナユタン星人
&first=0.359
&lv_4=11+
&des_4=林化锆
&inote_4=(202){4},,,6/4,
{8}5/3,3h[8:5]/5h[8:5],,,,,,,4/6,
6h[8:5]/4h[8:5],,,,,,,2/4,
2h[8:5]/4h[8:5],,,,,,,5/7,
7h[8:5]/5h[8:3],,,,,,,{4}4/5,
5/3,2/5,1/5,
1/5,6/1,7/1,8/1,
2/7h[8:7],5,{8}4,4,{4}4,
{2}5/2-5[8:1],6-1[8:1]/4-8[8:1],
{4}3/6,4/5,1/2,{8}8,8/3,
,4,{4}4/5,{2}3-8[8:1]/6-1[8:1],
{4}2h[4:1],7h[4:1],3h[4:1],{8}6,2h[4:1],
,5,5,3,3,7,4,6,
{4}3h[4:1],5h[4:1],3h[4:1],{8}5,2h[4:1],
,4,4,1,1,5,{4}6/3,
{8}2,2,6,6-8[8:1],,,,1,
,3/7,,1/5,1,6,6,4,
7,5/7,,,2,4/2,,,{4}8/1,
5-7[8:1]/4-2[8:1],,8/1,
2/6h[1:3],2,2,2,
3,4,5,7,
8,8,8,8,
1,3,4h[4:1],5,
7/3h[4:11],7,7,7,
6,5,4,2,
1,2,4,{8}5,4/6,
,3,{4}3/4,{2}1-5[8:1]/8-4[8:1],
{4}3>8-4[2:5],6,6,6,
7,6,5,5,
7,6,7,6,
1/7,2/7,7/3,{8}4,6,
{4}3h[4:1],{8}5,4,{4}7h[4:1],{8}3,6,
{4}2,1/6,3/5,7/5,
8h[4:1],{8}1>6[2:1],1,,,,8,
,,{4}7/3,{2}1-5[8:1]*-4[8:1],
{8}3h[2:1],,,1,{2}1-5[8:1],
{8}6h[2:1],,,4,{2}4-8[8:1],
{4}2h[4:1],{8}7,7,{16}3h[16:3],,,5,,,{8}5,
{16}2,,,4,,,{8}3,{4}6h[4:1],5<4[4:5],
{8},,,,,,,,,,,,6,
6,3,3,
{4}5/4,8/7,2/3,6/5,
7b/8b,6b/4b,{2}1b/2b,
4/2-4[8:1],5-7[8:1]*-3[8:1],
{4}2,{8}7,7,3,3,{4}6/3,
{2}5/7-5[8:1],4-2[8:1]*-6[8:1],
{4}7,{8}2,6,2,7,{4}7/1,
{8}4,4h[8:1],6,6h[8:1],3,3h[8:1],8,8h[8:1],
{4}2-4[8:1],6,{2}7-5[8:1],
{8}3,3,5/3,5/3,{4}5/3,{8}6,6,
6/4,6/4,{4}6/4,{2}5-2[8:1]/6v1[8:1],
3/8-6[8:1],1-3[8:1]*-7[8:1],
{4}6,{8}3,3,7,7,{4}2/7,
{2}5/3-1[8:1],8-6[8:1]*-2[8:1],
{4}3,{8}6,2,6,3,{4}3/5,
8/1,{8}2,2h[8:1],7,7h[8:1],{4}4,
6-8[8:1],2,1-3[8:1],8,
7h[8:7],5,{8}4,4,{4}4,
3/5,1/2,{2}5V71[4:1],
{4}2,5/4,{2}1/2-4[8:1],
{4}5,4/6-8[8:1],,1,
7/8,5/4,8/7,{8}4-2[8:1],5,
{4}5,{8}6-8[8:1],3,{4}3,1,
2/1,4/5,{2}8qq8[8:3]/1pp8[8:3],
{4},2,{2}7/1-3[8:1],
{4}1,4/5,1/2,3,
8h[2:1],{8}1,1,{2}1-3[8:1],
4/5-7[8:1],5/4-2[8:1],
{4}5-7[8:1],4-2[8:1],{2}5-7[8:1],
5/4-2[8:1],4/5-7[8:1],
{4}5/4-2[8:1],5-7[8:1],{2}4-2[8:1],
5-7[8:1]/4-8[8:1],4-2[8:1]/5-1[8:1],
{4}5-8[8:1],4-2[8:1],{2}5-7[8:1],
4-2[8:1]/5-1[8:1],5-7[8:1]/4-8[8:1],
{4}4-1[8:1],5-7[8:1],{2}4-2[8:1],
{8}8/1,8/1,,,4/5,5/4,,,{4}2/4,
8/1,{2}6/4,
{1}6>7[2:7],
{4},,,,,,,,,,,,4/5,
3,5/1,2,
5/3,6/4,7/5,2/1,
{8}4,4,4,4,{4}4,{8}2/6,2/6,
2/6,2/6,{4}2/6,{16}4,5,4,5,{4}4,
{8}3-1[8:1],8,{4}8,{2}5-3[8:1]*-7[8:1],
{4}2,{8}6,6,2,2,{4}8/2,
6-8[8:1],1,{2}4-6[8:1]*-2[8:1],
{8}7,7,3,6,3,5,{4}5/1,
4/6,{8}7,7h[8:1],2,2h[8:1],5,5h[8:1],
{4}3-1[8:1],{8}7,7,{4}7,1/6,
2qq4[4:3],5,{8}6,6,{4}6,
{2}7-5[8:1],{4}3-1[8:1],{8}7,7,
{4}7,5/4,7/8-2[8:1],{8}6,6,
{4}6,5-7[8:1]*-3[8:1],,2/8,
1,4/5,2/1-7[8:1],{8}3,3,
{4}3h[8:1],{8}6,6,6,1,{4}1/7,
7/8,5/4,{2}7/8qq8[8:3]*pp8[8:3],
{4},5-7[8:1]*-3[8:1],,2/8,
1/2,5/4,1/2-4[8:1],6,
{8}5,5,{4}4-2[8:1],{2}5-7[8:1],
{4}1/2,4/6,8/1,{8}2,2,
{4}3/5-7[8:1],{8}4,4,{4}4,8/2,
7/1,4/5,8/1,{8}3,3,
6,6,4,4,7,1,{4}7/1,
8/2,5/4,{2}7/1qq1[8:3]*pp1[8:3],
{4},3-1[8:1]*-6[8:1],,7/8,
7/2,5/4,{2}8/1-4[8:1],
{8}6,6,4,5,2,2,7,7,
3,3,6,6,{16}4,5,4,5,4,5,4,5,
{2}4,{4}5b/4b,5b/4b,
3h[4:1],7h[4:1],1h[4:1],{8}5h[8:1],2h[4:1],
,4h[8:1],3h[8:1],5h[8:1],4,6,{4}6/4,
6h[4:1],2h[4:1],8h[4:1],{8}4h[8:1],7h[4:1],
,5h[8:1],6h[8:1],4h[8:1],5,3,{4}3/5,
{8}2,5,3,6,,6/4,,8/7,
,1/2,,7,7,2,2,6,
6/4,4/6,,,3/5,5/3,,,{4}8b/1b,
5b-2[8:1]/4b-7[8:1],
E
&lv_5=13+
&des_5=lhg
&inote_5=
(202){4},{8},,,,,,7/4,
7h[8:5]/4h[8:5],,,,,,,5/3,
5h[8:5]/3h[8:5],,,,,,,6/2,
6h[8:5]/2h[8:5],,,,,,,5/4,
4/5h[8:5],,,{4}2b,2b>6[8:7],
6,7,8,1,
1h[1:1],6,7,8-4[1:1],
{8},,7,7,7,7,7,7,
{4}8-4[8:1],8,1-5[8:1],1-3[8:1],
7-5[8:1]/1-7[8:1],1/7w3[8:1],{8},,5,6-8[8:1],
,6,3-1[8:1],3,{4}4w8[8:1],4b,
2h[4:1],6h[4:1],3h[4:1],{8}5h[8:1],4h[4:1],
,6h[8:1],3h[8:1],7h[8:1],3h[8:1],5h[8:1],4h[8:1],6h[8:1],
{4}1h[4:1],5h[4:1],2h[4:1],{8}5h[8:1],4h[4:1],
,6h[8:1],3h[8:1],7h[8:1],3h[8:1],5h[8:1],4h[8:1],5h[8:1],
2,2h[8:1],4,4h[4:1],,5-2[8:1],,5-8[8:1],
,5-1[8:1],,5,7,6,5,4,
3,5/3h[8:3],,,7,5/7h[8:3],,,{4}4-2[8:1],
4/6-8[8:1],6/4,{8}3>7[1:2],3,
{4}7,7,7,7,
6,6,6,6,
5,5,5,5,
4h[4:1],3h[4:1],2h[4:1],{8}1>5[1:2],8,
{4}7,7,7,7,
6,6,6,{8}6,6,
{4}7h[4:1],{8}5,4h[2:1],,,,1-5[8:1],
,1,{4}2-6[8:1],2/3-8[8:1]*-6[8:1],3b<1[1:2],
2,2,2,2,
3,3,3,3,
4,4,4,4<7[4:1],
7-3[4:1],3>8[4:1],8-4[4:1],{8}6,7,
{4}7h[4:1],{8}4,3,{4}3h[4:1],{8}6,7,
{4}8h[4:1],5h[4:1],7,6/4,
2/4>5[4:3],{8}1,1h[8:3],,,,2-4[8:1],
,2,{4}5-1[8:1],5-7[8:1]*-3[8:1],5,
{8}2,3,4,5,{4}4-2[8:1]/6-8[8:1],6/4,
{8}3,4,5,5,{4}6-8[8:1]/4-2[8:1],6/4,
{16}1h[16:3],,,2h[16:3],,,{8}3,{16}8h[16:3],,,7h[16:3],,,{8}6,
{16}5h[16:3],,,4h[16:3],,,{8}3,{4}5/2h[4:1],8<4[4:3],
4b,{8}3,3,3,3,3,3,
{16}2,4,2,4,2,4,2,4,1,3,1,3,1,3,1,3,
{4}1-4[8:1],1/6-2[8:1],6/3-8[8:1],3/5-7[8:1]*-8[8:1],
5b-3[8:1]*-2[8:1],5bw1[8:1],{2}5b,
{4}1w5[8:1],1b,8-4[8:1],{8}8,3h[4:1],
,4,5/3,6,7/4,3,2/6,2,
{4}1w5[8:1],1b,8-4[8:1],{8}8,3h[4:1],
,5,6,7/4,7/4,2b,{4}2b,
{8}6h[8:1],4,3h[8:1],5,{4}2-5[8:1],2/3V17[4:1],
{8}3,4,{4}5-1[8:1],5/1,{16}2,8,2,8,
{8}3/7,7/3,6/4,6/4,{4}7/3,{8}6/2,2/6,
3/5,3/5,{4}2/6,4b-1[8:1]*-7[8:1],4b,
8w4[8:1],8b,1-5[8:1],{8}1,6h[4:1],
,5,4/6,3,2/5,6,7/3,7,
{4}8w4[8:1],8b,1-5[8:1],{8}1,6h[4:1],
,4,3,2/5,2/5,7b,{4}7b-3[8:1],
7/2-5[8:1],2/6-1[8:1],6/4-8[8:1],4,
1<5[4:1],1,8>4[4:1],8qq5[8:5],
8b,{8}4,4,4,4,4,4,
{4}3-8[8:1],3/4,6-1[8:1],{8}6/4-2[8:1],3,
{4}4-6[8:1],4-8[8:1],4,{8}7,7,
6h[8:1],1,7h[8:1],2,6h[8:1],4,5-7[8:1],4,
{4}5-3[8:1],5-1[8:1],5,{8}3,2,
{4}6/2h[8:1],{8}7,8,3/8h[4:1],2b,{4}2b-4[8:1],
2-8[8:1],2-6[8:1],2,{8}7,6,
{4}5pp5[8:3]*qq5[8:3],5,{8},,4,3,
{4}2-4[8:1],2-8[8:1],2-6[8:1],2/7pp5[4:3],
{8}7,4,4,4,{2}3h[8:3],
{4}4/6-8[8:1],6,5/3-1[8:1],3,
4/6-8[8:1],6/4-2[8:1],4/5-1[8:1],5,
5/3-1[8:1],3,4/6-8[8:1],6,
5/3-1[8:1],3/5-7[8:1],5/4-8[8:1],4,
4/6-8[8:1],6,5/3-1[8:1],3,
4/6-8[8:1],6/4-2[8:1],4/5-1[8:1],5,
{8}3-1[8:1],5h[8:1],{4}3,4/6-8[8:1],{8}6/4,4,
{4}5/3-1[8:1],3/5-7[8:1],5/4-8[8:1],4,
{8}6/2,6h[4:1]/2h[4:1],,,7/3,7h[4:1]/3h[4:1],,,{4}4/6-8[8:1],
6/2-4[8:1],{2}2/6h[2:1],
{1}5<5[2:7],
,7h[2:3],
{4},,,,4/6h[4:1],
4,3/6h[4:1],3,
6/4h[4:1],6,7/4h[4:1],7,
{8}6/4,6/4,7/3,6/4,{4}7/3,{8}3/5,3/5,
2/6,3/5,{4}2/6,{16}3,5,3,5,2,6,2,6,
{4}4bw8[8:1],4b,5-1[8:1],{8}5,2-5[8:1],
,2,7-4[8:1],7,3-8[8:1],3,6-2[8:1],6,
{4}5bw1[8:1],5b,4-8[8:1],{8}4,7qq4[8:3],
,7/2,2,1,1,8b,{4}8b-4[8:1],
8/2-5[8:1],2/6-1[8:1],6/3-7[8:1],3,
4<8[4:1],4,5>1[4:1],5qq7[8:5],
5b,{8}1,1,1,1,1,1,
{4}2-5[8:1],2/1,{16}8,6,8,6,8-5[8:1],5,8,5,
{4}8-3[8:1],8-4[8:1],8,{8}2h[8:1],4,
3h[8:1],5,{16}6,4,6,4,{8}6,5,4-1[8:1],3,
{4}6/4-7[8:1],2/4-8[8:1],4/6,{8}5,5h[8:1],
2,2h[8:1],6,3,3h[4:1],8b,8b-5[8:1],2,
{4}1/8-3[8:1],7/8-4[8:1],8/1,{8}3,4/6,
{4}5pp5[8:3]*qq5[8:3],5,{16},,,,4-1[8:1],6,4,6,
{4}4-7[8:1],4-8[8:1],4,6h[4:1],
{8}8,5/1,5v2[8:1]`1v6[8:1],5/1,{4}1v4[8:1]/5v8[8:1],1-3[8:1],
1-5[8:1],1-7[8:1],1,{8}6h[8:1],4,
5h[8:1],3,{16}2,4,2,4,{8}2,4,5-8[8:1],6,
{4}5-1[8:1],5-2[8:1],5,{8}4,4h[8:1],
7,7h[8:1],3,6,6h[4:1],1b,1b-4[8:1],7,
{4}8/1-6[8:1],2/1-5[8:1],1/8,{8}6,5/3,
{4}4qq4[8:3]*pp4[8:3],4,{16},,,,5-8[8:1],3,5,3,
{4}5-2[8:1],5-1[8:1],5,3,
{8}8h[8:7],7,7,7,7,7,7,7,
{16}7,8,7,8,7,8,7,8,7,8,7,8,7-3[8:1],8,7,8,
{2}7,{8}6,{16}3,3,{8}7,{16}4,4,
{4}6h[4:1],5h[4:1],6h[4:1],{8}5h[8:1],6h[4:1],
,5h[8:1],6h[8:1],7h[8:1],6h[8:1],5h[8:1],4h[8:1],3h[8:1],
{4}4h[4:1],3h[4:1],4h[4:1],{8}3h[8:1],4h[4:1],
,3h[8:1],4h[8:1],5h[8:1],4h[8:1],3,{16}4,3,4,3,
{8}5h[8:1],4h[8:1],3h[8:1],2h[4:1],,5-7[8:1],,5b/3-1[8:1],
,3b/5-1[8:1],,5b,2,3,4,5,
6/8,8h[4:1]/6h[4:1],,,3/1,1h[4:1]/3h[4:1],,,{4}5b-7[8:1]/4b-8[8:1],
4b-2[8:1]/5b-1[8:1],{2}5b/4b,
E
