&title=vocandroid
&artist=lumo
&first=0.61
&des=kyu dx
&des_5=kyu
&lv_5=14
&inote_5=(200){4},{24},,,,,,,,,,,,,,,,,,2h[#1.65],
,,,,,{8}8,{32}7,,,C,,,,,6,,,B5,,,,,{16}5,B3,
{32},,,,1,,,B1,,,,,{8}6,B4,B7,B1,B3,
{4}7h[8:11],{8}1,{32}2,,,B2,,,,,3,,,B3,,,,,4,,,B4,
,,,,2,,,B2,,,,,Cf,,,3x,,4x,,3x,,,,,{16}6x,5x,{8}6x,
2b/5b,{16}3,4,{8}3,2/5bx-8[8:1],,5x/3bx>8[8:1],,3x/7bx<4[8:1],
,7bx/1xh[8:5],,B3,B2,B6,{4}B7f,
{8}4b/7b,{16}6x,5x,{8}6x,7x/4xv1[8:1],,4/6v3[8:1],,6x/2v7[8:1],
,2/8,3,6,{16}4,5,4,5,4,5,4,5,
{4}4h[1:1],{32}5,,,B5,,,,,{8}6,{32}B6,,,7,,,,B7,,,,,{8}8h[1:1],
{32}B1,,,2,,,,,{8}B2,3,B3,4,B5,
5h[1:1],B6,6bx,B6,7bx,B7,8bx,B8,
1bx,7/2bx,{4}3x/6x,{8}1x/8x,{16}1,8,1w5[8:1],8,1,8,
{4}1b,{8}2x,2p5[8:1],,2/7v4[8:1],,7/4xq2[8:1],
,4/7xh[8:5],,3x,4x,5x,{32}6x,,,,,8,,,{8}7x/8x,
{16}7,6,{8}5,2b/4b,,6/2,,4/3,
,3,3,3,3x/B4,{32}B5,3x,,,{16}B6,3x,B7,3x,
{4}8xh[1:1],{8}1x,B3,{32}2,,,,,B4,,,{4}3,
{8}3h[1:1],B7,7,B6,6,B7,{4}7,
{8}8h[4:3],4,4bx,4,4bx,4,4bx,8b/4bx,
,7/3,{4}7/3,6-1[8:1]/2-5[8:1],2b/6b,
{8}8/3,{16}7,6,{8}5,7/3,,6/3,,4/5xw1[8:1],
,5,,,2/B7/B6/E7,7/B2/E3/B3,8,7,
1/7,{16}6,5,{8}4,3/6,,C/B8/B1/B2/B3/B4/B5/B6/B7,,1xz5[8:1]/8x-4[8:1],
,1/8,,5x,3h[32:1]/6h[32:1],3h[32:1]/7h[32:1],3h[32:1]/8h[32:1],1h[32:1]/3h[32:1],
{4}3h[4:1],{16}8,C,{8}7h[4:1],C,1h[4:1],C,6,
{16},,2,3,{4}4h[4:1],5h[4:1],3b,
5/4,6/3,{32}1,2,3,4,5,6,7,8,1,2,3,4,5,6,7,8,
1,2,3,4,5,6,{16}7,{4}8h[4:1],{16},5,,,{4}8/1,
{32}8x,7x,6x,5x,4x,3x,2x,1x,8x,7x,6x,5x,4x,3x,2x,1x,8x,7x,6x,5x,4x,3x,{16}2x,{4}1xh[4:1],
{32}5v7[32:9],,,B6,,,,,{4}5,{32},1v3[32:7],,
,{8}B2,{32},1,,,,,,,{2}5h[8:1],
{8}8p4[4:1],C,{4}8,
{8}2p5[32:5],C,{4}2,{8}7p1[4:1],C,{4}7,
2w6[4:1],{8}2,{32}C,B7/B6/B5,,,,8w4[16:3],,,,,,,,8,,,C,B4/B5/B3,,,{4}1w5b[4:1],
{8}1,{32}C,B4/B5/B6,,,,,{16}3V57[16:3],,,{4}7V13[4:1],
3V57[32:7],7V13[0.2625##0.3375],{32}3V57[16:3],,,,,,,,,,,,,,,8h[2:1],
,,,,,,,
,,,,,,,,,{2}1,
5h[4:1]/4h[4:1],{8}3h[16:1]/6h[16:1],2h[16:1]/7h[16:1],1h[16:1]/8h[16:1],1h[16:1]/7h[16:1],
1h[16:1]/6h[16:1],1h[16:1]/5h[16:1],5h[16:1]/2h[16:1],3h[16:1]/5h[16:1],{16}4,3,4,3,4,3,4,3,
{8}4-8[32:5],
,{4}4x/2-6[32:7],2x/8s4[4:1],{32}8x/1>3[32:3],'''
,,,,,,,{8}1,
7-4[8:1],{4}7x,3xh[4:1],{8}4,4,
{4}5b/2b,{8}E2/B2/B1,B6/E6/B5,,8/1,7/2-6[8:1],8/1,
{4}2bx/8-5[8:1],8bx/2-5[8:1],7h[4:1]/A2f,{8}1,1,
1-6[8:1],6-3[32:7],{32}1,,,3-8[8:1],,,,,,,,,{8}7,7,7,
{32},,,4,,,,,{8}4,5,5/1,6/2,7/3,4b/8b,
,B1/E2/B2/E1,B4/E4/B3,B5/E5/E6,B8/E8/B7,B8/B1/E1,Cf,6/2,
{4}6/2,7-4[8:1]/3-8[8:1],3bx/7bx,6/2,
{8}1v3[32:5],1,7v5[32:5],7,4p7[4:1],4,6v1[8:1],6,
{32},8,,,{8}8w4[32:3],{32},,,,8,Cf,,,,,,,,,,,2,,,5,,,,,{4}4b/3b,
{8}7/3,8/2,,2/7,3/6-3[8:1],5/4,
{4}6b/2-7[8:1],2b/5s1[8:1],{32}5b/4h[4:1],,,,,,,3,,,,3,,,,,{8}5-2[8:1],
2<5[4:1],3,3,,1-4[8:1],7-4[0.1875##0.225],{32}1,7,,,,,,,{8}3xh[16:1],
3xh[16:1],3xh[16:1],3xh[16:1]/2xh[16:1],3xh[16:1]/1xh[16:1],3xh[16:1]/8xh[16:1],3h[4:3]/7xh[16:1],
,6x,5x,4x,2x,1x,8x,3/7,
{4}3/7,2p5[4:1]/6p1[4:1],{2}2x/6x,
{8}8/4,{16}1,2,3,4,{8}7/5,,B1/B2/B3/B4/B5/B6/B7/B8/Cf,,4xv1[8:1]/5xs1[8:1],
,5b/4b,,,8,8,7/1,6/1,
(205){16}1/5,2x,3x,4x,{8}5x,8/7,,6/1,,5/2x>6[0.2956##0.1493],
(201),{32}2x/1x,8x,7x,6x,{4}2x<6[8:1],2x/8xw4b[8:1],8bx,
(200)6/2,5/3,{32}3x,5x,,,{16}3x,5x,3x,5x,3x,5x,
3x,5x,3x,5x,{4}3h[4:1],{32}2h[16:7],,,,,,,,,,,,,,,1b,
8,7,6,5,4,3,2,1,8,7,6,5,4,3,2,1,,8
,7,6,{8}5h[32:9],{32},,,,,4-7[0.4125##0.3],,,,,,,,,,,{4}4/7q3[4:1],
{32},3q7[0.2625##0.3],,,,,,,{4}7V13[32:9],
{32},3<7[4:1],,,,,,,,,,,,,,,{2}B1/E1/B8,
{4}5p2[0.1875##0.4125],C,4q7[0.1875##0.4125],{32}C,,,,,,,5-8[8:3],
,,,,,,,8-4[0.4125##0.3375],,,,,,,,4-1[0.45##0.2625],,,,,,,,1,,,,,,,,,,,,,,,,,{4}2b,
3-6[4:1],3,
{32}4-7[0.3##0.3],,,,,,,,7-2[4:1],,,,,,,2-5[4:1],,,,,,,,,,,,,,,,,{1}6h[1:1],
{2}1h[32:13],{8}1,1/8,2,2/8,
3,3/8,4,4/8,{16}4,5,6,7,8,1,2,3,
4h[16:7],,,,,,,5h[16:9],,,,,,,,,{2}6h[2:1],
7h[2:1],
{4}8h[2:1],1,{32}2,,,3,,4,,3,,4,,3,,4,,,{16}4x,
3x,2x,{32}1x,8x,,7x,,6x,,5x,,,{4}8/4h[4:1],8,
8/3h[4:1],8,8/2h[4:1],8,
8/1h[4:1],{8}8x,1x,{16}2x,6x,2x,6x,3q6[0.15##0.375],7x,3x,7x,
3x,,,,,7z3[32:11],,,,7,{32},6,,,{4}5,
4v2[4:1],4,{32}3x<7[32:7],,,,,,,7V13[4:1],,,,,,,,,1xh[8:3],
,,,,,,,,,,5,,,,,,,,,,,,,{4}5/7-3[4:1],
3>1[4:1],1-7[8:1],4,{8}2,6,
5h[4:1]/3h[4:1],,,6h[4:1]/2h[4:1],,,{4}1V74[4:1]/7p4[4:1],
{16}7bx/1bx,,,,,,,,,8,,8,7,6,5,5x,
3x,5x,3,5,3,5,3,6,{32}2,,,6,{16}2,6,2,6,2,6,
1,7,1,7,1,7,2,8,2,8,2,8,2,8,2,8,
3,1,3,1,3,1,3,1,3,1,3,2x,2x,2x,2x,2x,
2x,8,2,7,1,8,2,7,1,8,2,7,1-5[1.9875##0.2625],8,2,7,
{1}1b,
{4}2h[8:1]/1h[8:1],{16}7h[8:1]/8h[8:1],,,1h[32:3]/8h[32:3],,,,,{4}3b/6b,
{8}6<3[4:5],,,B4,,,,B5,
,C,{4}Cf,4,{8}5x,5,
{4}3>6[4:5],{8}B5,B4,B3,B6,B5,E5,
B2/B3,B7/B6,{4}C,5b,{8}4,3,
2,1,8,7h[4:1],,8,1,2h[4:1],
,1,{4}1,{8}2,6,6/2,5/3pp8[32:9],
,6,6,6,{16}1x,2x,3x,4x,8x,7x,6x,5x,
{4}2/4x,5/4,5b/3b,{8}4/7-2[8:3],4,
{4}4,{8}5,5b,,6/5,5/4,4b/3b,
,2/4,{16}4/2b-5[8:1],5x,6x,7x,{4}8xh[16:3],{8}5-8[8:1],5,
{4}5b/1xh[4:3],{32},,,,,,,,,,,,,,,,2x,3x,{16}4x,{32},,,7x,
6x,5x,,,,,,,{4}2x-6[8:1]/1x-5[8:1],2b/1b,{8}8p4[8:1],4>2[8:1],
{32}8,,,,,2,,,1,8,,7h[4:1],,,,,,,,,{8}3x,4x,5x,
,1/7,{4}6/2-5[8:1],{8}2b/7,7,8,1h[4:1],
,3,4,5,{16}8x,7x,6x,5x,2x,3x,4x,5x,
{4}8h[4:1],1h[4:1],{24}8b,7,6,5,4,3,2,1,8,7,{96},,{32}8,7,
,8,{16}7,{8}8b,1/6,5,2/4,3,2/3,3q6[0##0.45],
,8,{4}8h[2:1],5,{8}5,5,
{4}5/2v7[8:1],{8}2,3v6[32:5],,3,2>5[8:1],2,
{32}2b,,,,,,,7/8,,,,8/1,,,,,,2/1h[4:1],,,,,,,{8}2-7[8:1],7-4[8:1],
{4}2,{8}6,6h[4:1],,4,3,7h[4:1],
,2,{32}2V85[0.1875##0.2625]/6V84[0.1875##0.2625],,,,,2/6,,,,,,,,,,,{8}7/3,6b/2b,
,8x/4x,8x/3x,8x/2x,8x/2x,8x/1x,1x/7x,6x/1x,
{4}5x/1x,1-4[8:1]/5-8[8:1],1/5,{32}2h[4:1],,,,,,,7-3[8:1],
,,,,{8}7,8-4[8:1],8,1-5[8:1],2-6[8:1],1,2,
,,{4}6-2[8:1]/5-1[8:1],6/5,{8}7-4[8:1],7,
7b/2xh[32:17],{16},,,,,,,,3,4,{8}5bx>2[32:7],5,
{4}5bx<8[16:3],5bxw1[8:1],5x,{8}7-4[8:1],7,
2-5[8:1],2,8-4[8:1],8,1-5[8:1],1,{16}7-3[8:1],Cf,{8}7,
{16}8-4[8:1],Cf,{8}8,{16}1-5[8:1],Cf,{8}1,{16}2-6[8:1],Cf,{8}2,{16}7,Cf,{8}7b,
,7x/8x,6x/7x,6x/5x,5x/4x,4x/3x,{32}3x/2x,,,2x/1x,,,,,{8}2/1h[4:1],
,,1x,{24}1,2,3,4,5,6,{16}7,{48}8x,1,,{24}2,3,4,
(192.75){1}5x>8[4:9]/1x>8[4:9],
{4},,,,,,,6x,
2x,3b/7b,,3<7[4:7]/7V13[4:7],
,,,,,,,,,5/1,
,5h[32:101]/1h[32:101],
{1},,{4},,,{16},,,{32}6/2,
7/3,
{1}4bx/8bx,
E
