&title=THE SAFARI
&artist=Lion Musashi
&first=0
&des=Tail_R
&lv_5=13+?
&lv_7=展
&inote_5=
&inote_6=
&inote_7=(149.851)
{1},{48},
{4}7^8-5[4:1],5q4[4:1],2,7-1-6[4:1],
{4}6-2-5[4:1],5-3[32:3],7-1[32:3],3-5[32:3],
{4}1-5b[8:1],B2f,1>1b[8:3],5,
{8}3,2,
(149.85)
{16}1x>5b[16:3],1,,5<1b[16:3],5,,C,,,,,,E2/E6,,,,
{16}1>5b[16:3],1,,5<1b[16:3],1,5,5,,C,,,,E8/E4,,,,
{16}1>5b[16:3],5,,5<1b[16:3],1,,C,,,,,,E2/E6,,,,
{8}1>5b[4:1],,5<1b[4:1],,C,,5,6,
{16}7^8-5[16:3],7,,5q4[16:3],5,,4,,3,,,,B2/B6,,,,
{16}7^8-5[16:3],7,,5q4[16:3],7,4,4,,3,,,,B3/B7,,,,
{16}7^8-5[16:3],7,,5q4[16:3],4,,3,,2,,,,B2/B6,,,,
{16}6^8[8:1]/8,6,,5,5-8[8:1],4,,4,4p5[8:1],,,,A4f,,,,
{16}7b-1-6[4:1],,5,7,6-2-5[4:1],,4,,5-3[32:3],,8,1,2,,E1,,
{16}7-1-6[4:1],,4,8,6-2-5[4:1],,3,,5-3[32:3],,7,8,1,,E8,,
{16}1>5b[4:1],,6,4,5<1b[4:1],,C,,E3,,E5,,E7,,E1,,
{16}7-1[32:3],,2,6,3-5[32:3],,2,,1-5b[8:1],,1,,4,,3,,
{16}7b^8-5[4:1],,4,6,5q4[4:1],,5,,4,,8,1,2,,C,,
{16}7^8-5[4:1],,2,6,5q4[4:1],,4,,3,,1,2,3,,C,,
{16}1>5b[4:1],,6,4,5<1b[4:1],,C,,B3,,B5,,B7,,B1,,
{16}1x>5b[8:1],8,,8,1<5b[8:1],8,,8,1,,2,,C,,1b/5b,,
{16}7b^8-5[4:1],,4,6,5q4[4:1],,5,,2x,1x,2x,1x,2x,,C,,
{16}7-1-6[4:1],,5,7,6-2-5-3[8:3],,4,,1x,8x,1x,8x,1x,,C,,
{16}1>5b[4:1],,6,4,5<1b[4:1],,C,,3x,4x,3x,4x,3x,,E1,,
{16}1>5b[4:1],,6,4,5<1b[4:1],,C,,1,,5b>1b[8:1],,,,5b,,
{16}7b-1[32:3],,2,6,3-5[32:3],,2,,1x-5b[8:1],8x,1x,8x,1x,,3,,
{16}7-1[32:3],,4,6,3-5[32:3],,2,,1x-5b[8:1],2x,1x,2x,1x,,3,,
{16}7-1-6[4:1],,5,7,6-2-5[4:1],,4,,5-3[8:1],,8,,1,,2,,
{16}7x-1-6[4:1],7,,6,6x-2-5[4:1],,5,5x-3[32:3],,3,3,,{48}D3f,A2,D2,A1,D1,A8,D8,A7,D7,,,,
{16}1>5b[16:1]/2,,8,1<5b[16:1]/8,,2,1/2,,3x,2x,3x,2x,3x,,1/5,,
{16}7-1[16:1],,5,5-1b[16:1],,3,3-5[16:1],,7x,6x,7x,6x,7x,,1/5,,
{16}3-5[16:1],,1,1-5b[16:1],,7,7-1[16:1],,3x,2x,3x,2x,3x,,1/5,,
{16}7^8-5q4[4:1],,5,5,,4,4,,{32}1bx,2bx,3bx,4bx,5bx,6bx,7bx,8bx,1bx,2bx,3bx,4bx/Cf,,,,,
{16}7^8-5[16:3],,5,5q4[16:3],,4,4,,3x,2x,3x,2x,3x,,1/5,,
{16},,7b^8-5q4[4:1],,5,5,,4,4,,2x,1x,2x,,3/7,,
{16}7^8-5[16:3],,5,5q4[16:3],,3,3,,3x,2x,3x,2x,4x,3x,4x,3x,
{16}5x/7^8-5q4[8:5]*-1-6-2-5-3[8:5],,,,A7f,,,,,,,,,,,,
{16}1x>5b[8:1],8,,8,1<5b[8:1],8,,8,1,,2,,C,,3b/7b,,
{16}1b>5b[4:1],,6,4,5<1b[4:1],,C,,3x,4x,3x,4x,3x,,E1,,
{16}7^8-5[4:1],,4,6,5q4[4:1],,5,,2x,1x,2x,1x,2x,,C,,
{16}7^8-5[4:1],,2,6,5q4[4:1],,5,,1x,8x,1x,8x,1x,,C,,
{16}7-1[32:3],,2,6,3-5[32:3],,2,,1x-5b[8:1],8x,1bx,8x,1x,,4b,,
{16}1hx[4:1]/5hx[4:1],,,,{64},,E5f,E1,B4,B8,B3,B7,E3,E7,,,,,,,{16}3,7,3,7,3,,1/5,,
{16}7^8-5[4:1],,4,6,5q4[4:1],,5,,2x,3x,2x,3x,2x,,C,,
{16}7-1-6[4:1],,5,7,6-2-5-3[8:3],,4,,8x,7x,8x,7x,8x,,C,,
{16}7-1[32:3],3,,7,7/3-5[32:3],3x,,1,1-5b[8:1],,8,,C,,4b,,
{16}7b-1[32:3]/3b,,4,6,3-5[32:3],,2,,1x-5b[8:1],2x,1x,2x,1x,,3,,
{16}1>5b[4:1],,6,4,5<1b[4:1],,C,,3x,2x,3x,2x,3x,,E1,,
{16}7^8-5[4:1],,4,6,5q4[4:1],,5,,2x,1x,2x,1x,2x,,C,,
{16}7^8-5[4:1],,3,6,5q4[4:1],,5,,1x,8x,1x,8x,1x,,C,,
{4}7^8-5[4:1],5q4[4:1],4,C,
{4}7^8-5[4:1],5q4[4:1],4,C,
{4}7-1-6[4:1],6-2-5[4:1],5-3[32:3],C,
{1}7-1-6-2-5-3[2:1]*^8-5q4[2:1],
E
