&title=鳳凰誓歌
&artist=流星のサイトシーイング feat.雪希
&first=0
&des=Kage
&lv_5=14
&inote_1=(192)
{4},,,,,,1,1,1,1,1,1,1,1,1,1,1,1,1,1,1,1,1,1,1,1,1,1,1,1,1,1,1,1,1,1,1,1,1,1,1,1,1,1,1,1,1,1,1,1,1,1,1,1,1,1,1,1,1,1,1,1,1,1,1,1,1,1,1,1,1,1,1,1,1,1,1,1,1,1,1,1,1,1,1,1,1,1,1,1,1,1,1,1,1,1,1,1,1,1,1,1,1,1,1,1,1,1,1,1,1,1,1,1,1,1,1,1,1,1,1,1,1,1,1,1,1,1,1,1,1,1,1,1,1,1,1,1,1,1,1,1,1,1,1,1,1,1,1,1,1,1,1,1,1,1,1,1,1,1,1,1,1,1,1,1,1,1,1,1,1,1,1,1,1,1,1,1,1,1,1,1,1,1,1,1,1,1,1,1,1,1,1,1,1,1,1,1,1,1,1,1,1,1,1,1,1,1,1,1,1,1,1,1,1,1,1,1,1,1,1,1,1,1,1,1,1,1,1,1,1,1,1,1,1,1,1,1,1,1,1,1,1,1,1,1,1,1,1,1,1,1,1,1,1,1,1,1,
&inote_5=(192)
{1},
{4},,4,3,2b-8-6-4-2[8:12],,,,,8,8>8[8:10],,,,,,Chf[8:8],,,,B8/B1/A8/A1/D1,
{8}6,7-4[8:1]/8,,7/1-5[8:1],,1/5,,7b-2[8:1],7x,3b-6[8:1],3x,8b,8xh[8:2],,
{8}4,38,28,1-5[8:1]/8,,1/7-3[8:1],,78,
{16},,2,4,3,,7,5,6,,1,8,2-7[8:1],7,3,6,,,,,
{8}6b/5b,83,54,1/7-3[8:1],,1h[16:4]/7,,{16}4x,3x,{8}4x,2-4[8:1]/6,8-5[8:1],2,
{8}8>4[8:2],,4<8[8:2],,8>4[8:2],,4<8[8:2],,8>4[8:2],,4V68[8:2],,8V24[8:2],,4V68[8:2],,8,,5,5,5,5,63,63,63,63,{16}4,5,4,5,4z8[8:2],5s1[16:3],4,5,4,,,,,,,,
{8}4x-1-4[8:4],,E8,,E6,,E8,,4x-8-4[8:4],,A7,,E6,,A7,,5x-8-5[8:4],,E2,,E4,,E2,,5x-1-5[8:4],,A2,,E4,,A2,,
{8}3^8[8:2],,8pp4[8:4],8,,,,,7^4[8:2],,4V68[8:3],4,,2,2pp5[8:6],,,,,,,6,6h[8:2],,
{8}8-4[8:1],8,7-5[8:1],7,1-3[8:1],1,8,8,2b^5[8:2]/6b,,5qq6[8:3],5,,8,7-4[8:2],,4V61[8:3],3,,2,3h[8:4],,6,7,8V64[8:3],,4,4-8-6[8:3],,3,3,,2,1-4[8:1],,17,6-3[8:1],,61,,
{8}2-5[8:1]/8,1,2/8-5[8:1],1,82,1<5[8:3],,A2/B2,,B4/A4,,12,3,12,8,75,6/4<3[8:6],,,,,B6/A6,,B4/A4,,
{8}6,74,83,1-6[8:1]/2-5[8:1],,,,
{16}2,,2-4[8:1],,,,5-2[8:1],,5,,6,,,,7b,,8h[8:1],,7b,,6h[8:1],,7b,,8bs4[8:6],,,,8,,,,Ch[8:6],,,,,,,,,,,,,,
{8},54,6,3/8h[8:2],,1-6[8:1],2,31,,5-2[8:1],6,57,,8^5[8:1],1,2/8,,4^1[8:1],5,6/4,,8-3[8:1],7,6/8-5[8:1],,1/8-3[8:1],,7/8qq5[8:3],,B4,B3/E3,B2/B1/E2,,,,,
{8}4,3-7[8:1]/5,,53,6>6-4-2-8-6[8:27],6,,B7,,B8,,B1,,B2,,B3,,B4,,B5,,B6,,B7,,B8,,B1,,B2,,B3,,C,,,
{8}18,2h[8:4]/7,,,,6h[8:4],,,4,4h[8:4],,7,,7,6<3[8:6],,Ch[8:8],,,,,,,{24}A2,A1,A8,A7,,,,,,,,,,,,,,,
{4}5h[8:2],1w5b[8:1],1b>8[8:6],,,,
{8},,6/3-5[8:1],,6-8[8:1]/3-1[8:1],,6-4[8:1]/3,,63,,31,28,
{8}7-5[8:1]/1,,7/8-4[8:1],,1-5[8:1]/8,,1/2-4[8:1],,28,,
{16}7,6,5,,2h[8:2],,8,7,6-1[8:1],,,,,,,,25,,34,,,,83,,6-2[8:1]/5-1[8:1],,
{8},,,7/8-4[8:1],,8/1-5[8:1],,16,,7-3[8:1],,7/4pp1^2[8:4],,,,,,
{4}8,78,
{16}6b-4[8:1]/1b,,7,8,6,,1-5[8:1],,2,8,1,,7,,7,5,7,5,7,,2,3,45,,7,8,12,,3,,
{16}4,,35,,7,8,7,,45,,2-6[8:1],1,{8}2,1-5[8:1]/2,,8-4[8:1]/1,,7-3[8:1]/8,,78,,
{16}4-8[8:1],6,5,7,4-1[8:1]*-7[8:1],,,,,,,,8-4[8:1],,,,87,,6-3[8:1],,,,,,
{8}2h[8:2],,7h[8:2],,8pp3[8:6],8qq5[8:5],,,,,,,,4x,,35,35,35,35,,C,,
{8}1-5[8:1]/8,2,1/8-4[8:1],7,1-5[8:1]/8,2,6-3[8:1]/1,5,6/2-7[8:1],1,6-3[8:1]/2,5,6/2-7[8:1],1,62,,
{8}8-5[8:1],7,8-3[8:1],1,8-5[8:1],7,8-3[8:1],1,8-5[8:1],6,8-3[8:1],2,8-5[8:1],6,8,,
{8}2-4[8:1]/1,3,2/1-5[8:1],8,12,3q4[8:3],,7,7pp5[8:3],,7b,,,4,3x/5x,2,1/8V64[8:2],,4<8[8:2],2,8V64[8:2],2,4<8[8:2],2,8>8[8:5]*-2-4-6-8[8:5],,,,,,,
{8}A8f/1b,1,1,1,1,1,1,1,1,7,7,7,7,7,7,7,7,43,3,32,3,35,3,31,3,64,7,18,2,75,3,72,6,
{12}45,3,2,6,7,8,3,2,1,5,6,7,1,2,3,7,6,5,2,3,4,8,7,6,E4,B4,B5,E8,B8,B1,E4,B3,B2,E8,B7,B6,
{12}2,1,3,8,4,7,5,6,4,7,3,8,
{24}2h[8:8],,,,,,,,,,,,,,,,,,,,,,,,
{24}5h[8:8],,,,,,,,,,,,,,,,,,,,,,,,
{32}1,2,3,4,5,6,7,8,1,2,3,4,5,6,7,8,1,2,3,4,5,6,7,8,1,2,3,4,5,6,7,8,1,2,3,4,5,6,7,8,1,2,3,4,5,6,7,8,1,2,3,4,5,6,7,8,1,2,3,4,5,6,7,8,1,2,3,4,5,6,7,8,1,2,3,4,5,6,7,8,1,2,3,4,5,6,7,8,1,2,3,4,5,6,7,8,1,2,3,4,5,6,7,8,1,2,3,4,5,6,7,8,1,2,3,4,5,6,7,8,1,2,3,4,5,6,7,8,
{16}1-5[8:1],,1,,8^6[8:1],,8,,{24}4,3,2,{16},,7,1,6,2,5-1[8:1],,5,,4^2[8:1],,4,,{24}8,7,6,{16},,1,8,2,7,
{8}3-5[8:1],3,7-4[8:1]/3,7,7/2-5[8:1],2,2/8-4[8:1],8,8/1-5[8:1],1,17,7,
{8}7/8-4[8:1],1,7-3[8:1]/8,6,
{16}87,1,2,3,45,6,7,8,12,3,4,5,62,3,4,5,62,
{16}4,7,3,5,2,6,4,8,3,5,1,4,8,3,6b,,
