&title=XL TECHNO -More Dance Remix-
&artist=Satoshi"DAA"Takata
&first=1.048
&des=ゲーム開発部 supervised by "MR"
&lv_1=A
&lv_2=MG
&lv_3=Y
&lv_4=MR
&inote_1=(150)
{1}1x-5b[0.469116497#5116:1],,,,
{16}A7f,B6,A7,B6,A7,B6,A7,B6,A7,B6,A7,B6,A7,B6,A7,B6,
{16}E7,B5,E7,B5,E7,B5,E7,B5,E7,B5,E7,B5,E7,B5,E7,B5,
{16}B6,B4,B6,B4,B6,B4,B6,B4,B6,B4,B6,B4,B6,B4,B6,B4,
{16}B5,B3,B5,B3,B5,B3,B5,B3,B5,B3,B5,B3,B5,B3,B5,B3,
{16}E7f,B5,E7,B5,E7,B5,E7,B5,E7,B5,E7,B5,E7,B5,E7,B5,
{16}B6,B4,B6,B4,B6,B4,B6,B4,B6,B4,B6,B4,B6,B4,B6,B4,
{16}B5,B3,B5,B3,B5,B3,B5,B3,B5,B3,B5,B3,B5,B3,B5,B3,
{16}B4,E3,B4,E3,B4,E3,B4,E3,B4,E3,B4,E3,B4,E3,B4,E3,
{16}A7f,E7,A7,B5,B6,B5,E7,B6,E7,B4,B5,B4,B6,B5,B6,B5,
{16}E7,B6,E7,B4,B5,B4,B6,B5,B6,B3,B4,B3,B5,B4,B5,B4,
{16}B6,B5,B6,B3,B4,B3,B5,B4,B5,E3,B3,E3,B4,B3,B4,B3,
{16}B5,B4,B5,E3,B3,E3,B4,B3,B4,E3,E3,E3,B5,B3,E7,B5,
{16}A7f,E7,A7,B5,B6,B5,E7,B6,E7,B4,B5,B4,B6,B5,B6,B5,
{16}E7,B6,E7,B4,B5,B4,B6,B5,B6,B3,B4,B3,B5,B4,B5,B4,
{16}B6,B5,B6,B3,B4,B3,B5,B4,B5,E3,B3,E3,B4,B3,B4,B3,
{16}B5,B4,B5,E3,B3,E3,B4,B3,B4,E3,E3,E3,B5,B3,E7,B5,
{16}A7f,B6,A7,B4,B6,B4,E7,B5,E7,B3,B5,B3,E5,E5,E5,E5,
{16}E7,B5,E7,B3,B5,B3,B6,B4,B6,E3,B4,E3,E4,E4,E4,E4,
{16}B6,B4,B6,E3,B4,E3,B5,B3,B5,A2,B3,A2,E3,E3,E3,E3,
{16}B5,B3,B5,E3,B3,E3,B4,E3,B4,A2,A2,A2,B4,B4,B6,B6,
{16}A7f,B6,A7,B4,B6,B4,E7,B5,E7,B3,B5,B3,E5,E5,E5,E5,
{16}E7,B5,E7,B3,B5,B3,B6,B4,B6,E3,B4,E3,E4,E4,E4,E4,
{16}B6,B4,B6,E3,B4,E3,B5,B3,B5,A2,B3,A2,E3,E3,E3,E3,
{16}B5,B3,B5,E3,B3,E3,B4,E3,B4,A2,A2,A2,B4,B4,B6,B6,
{16}A7f,B6,A7,B6,A7,B6,A7,B6,A7,B6,A7,B6,A7,B6,A7f,B6,
{16}B6f,B4,B6,B4,B6,B4,B6,B4,B6,B4,B6,B4,B6,B4,B6f,B4,
{16}B4f,E3,B4,E3,B4,E3,B4,E3,B4,E3,B4,E3,B4,E3,B4f,E3,
{4}Ch[8:1],Ch[8:1]/B2/B7,{64}C/B2/B7,B1/B8,E1/E2/E8,D1/D2/D8/1hx[64:12]/8hx[64:12],{16},,,{64}E1/E2/E8,B1/B8/B2/B7/Cf,,,{16},,,
{16}A8,B1,B2,E3,A3,,B3,E3,B7,,A1,B1,A2,E3,,B4,
{16}A8,,B2,E3,A3,B4,,E3,B7,B1,A1,,A2,E3,B3,,
{16}A8,B1,B2,E3,A3,,B3,E3,B7,,A1,B1,A2,E3,,B4,
{16}A8,,B2,E3,A3,B4,,E3,B7,B1,A1,,A2,E3,B6,B4,
{16}A8,B1,B2,E3,A3,,B3,E3,B7,,A1,B1,A2,E3,,B4,
{16}A8,,B2,E3,A3,B4,,E3,B7,B1,A1,,A2,E3,B3,,
{16}A8,B1,B2,E3,A3,,B3,E3,B7,,A1,B1,A2,E3,,B4,
{16}A8,,B2,E3,A3,B4,,E3,B7,B8,A8,B8,A2,E7,,B5,
{16}A8,B1,B2,E3,A3,,B3,E3,B7,,A1,B1,A2,E3,,B4,
{16}A8,,B2,E3,A3,B4,,E3,B7,B1,A1,,A2,E3,B3,,
{16}A8,B1,B2,E3,A3,,B3,E3,B7,,A1,B1,A2,E3,,B4,
{16}A8,,B2,E3,A3,B4,,E3,B7,B1,A1,,A2,E3,B6,B4,
{16}A8,B1,B2,E3,A3,,B3,E3,B7,,A1,B1,A2,E3,,B4,
{16}A8,,B2,E3,A3,B4,,E3,B7,B1,A1,,A2,E3,B3,,
{16}A8,B1,B2,E3,A3,,B3,E3,B7,,A1,B1,A2,E3,,B4,
{16}A8,,B2,E3,A3,B4,,E3,B7f,B8,A8,B8,B7f,E7,B3,B5,
{16}A3f/B3/A6,B6,A7,B7,A8,B8,A1,B1,A2,B2,A3,B3,A2,B2,A1,B1,
{16}A4f/B4/A8,B8,A7,B7,A6,B6,A3f/B3/A7,B7,A8,B8,C/B5f/A1,B1,A6f/B6/A2,B2,A7f/B7/A3,B3,
{16}E7f,A6,E3,E2,B5,B4,A1,B8,E4,B3,E8,E1,E3,B2,E7,B6,
{16}A7,E8,B3,B6,B2,E2,A6,A1,B1f,A8,B3,A7,A1f,B2,E6,E4,
{16}A6f/B6/A3,B3,A2,B2,A1,B1,A8,B8,A7,B7,A6,B6,A7,B7,A8,B8,
{16}C/B5f/A1,B1,A2,B2,A3,B3,A6f/B6/A2,B2,A1,B1,A4f/B4/A8,B8,A3f/B3/A7,B7,A2f/B2/A6,B6,
{16}E3f,A3,E7,E8,B4,B5,A8,B1,E6,B6,E2,E1,E7,B7,E3,B3,
{16}A2,E2,B6,B3,B7,E8,A3,A8,B8f,A1,B6,A2,A8f,B7,E4,E6,
{16}A1f,A1,A1,A1,A1,A1,B2,B2,B2,E1,E1,E1,E1,A8,A8,D8,
{16}D8f,D8,B6,B6,B6,B6,B2f,B2,B2,B2,B2f,E6,E1f,E6,A7f,E6,
{16}D7f,E6,D7,D7,A7,A7,D8,D8,D8,A8,A8,A8,A8,D1,D1,A1,
{16}A1,A1,D2,D2,A2,D3,D3,D3,A3f,D4,D4,D4,A4f,D4,D4,D4,
{16}A8f,A8,A8,A8,A8,A8,B7,B7,B7,E1,E1,E1,E1,A1,A1,D2,
{16}D2f,D2,B3,B3,B3,B3,B7f,B7,B7,B7,B7f,E4,E1f,E4,A2f,E4,
{16}D3f,E4,D3,D3,A2,A2,D2,D2,D2,A1,A1,A1,A1,D1,D1,A8,
{16}A8,A8,D8,D8,A7,A7,D7,D7,D7f,A8,D2,A3,D5f,A3,D2,A8,
{16}A3f,B6,A1,A6,B3,A8,E3,B4,A8,E7,B5,A1,D3,D1,D2,D8,
{16}D6,D7,B1,D4,D3,B8,A6,A7,D2,A3,A2,D8,E2,E4,E1,E8,
{16}D2,A1,B2,A4,D4,B3,E8,A7,A8,E7,E6,A6,B3/B4,B5/B6,B1/B2,B7/B8,
{16}A8,E4,E3,A2,E6,E7,D3,D1,D2,D7,D5,D6,E3,E3,E7,E2,
{16}A6f,B3,A8,A3,B6,A1,E7,B5,A1,E3,B4,A8,D7,D1,D8,D2,
{16}D4,D3,B8,D6,D7,B1,A3,A2,D8,A6,A7,D2,E8,E6,E1,E2,
{16}D8,A8,B7,D6,A6,B6,E2,A2,A1,E3,E4,A3,B6/B5,B4/B3,B8/B7,B2/B1,
{16}A1,E6,E7,A7,E4,E3,D7,D1,D8,D3,D5,D4,E7,E7,E3,E8,
{16}A3f,E7,E3,E7,A2,E7,E2,E7,A1,E7,E1,E7,A8,E7,E8,E7,
{16}A3f,E6,E3,E6,A2,E6,E2,E6,A1,E6,E1,E6,A8,E6,E8,E6,
{16}A3f,E5,E3,E5,A2,E5,E2,E5,A1,E5,E1,E5,A8,E5,E8,E5,
{16}A3f,E4,E3,E4,A2,E4,E2,E4,A1,E4,E1,E4,A8,E4,E8,E4,
{16}E3f,E8,B5,E8,E2,E8,B6,E8,E1,E8,D7,E8,A8f,E8,A8f,E8,
{16}E2f,E7,B4,E7,E1,E7,B5,E7,E8,E7,D6,E7,A7f,E7,A7f,E7,
{16}E1f,E6,B3,E6,E8,E6,B4,E6,E7,E6,D5,E6,A6f,E6,A6f,E6,
{16}E8f,E5,B2,E5,E7,E5,B3,E5,E6,E5,D4,E5,A4f,E5,A4f,A5,
{16}4^3-1-6^7-2^3-8-6>2[4:3],,,,,,,,,,,,,,,D4f,
E
&inote_2=(150)
{1},,,,
{4}1bx>7-3b[1:1],,,,3x-7^5-1^3b[1:1],,,,3x^5z1^8z4b[1:1],,,,4x-2-6-1b[1:1],,,,
{4}1xpp4pp8b[1:1],,,8x^3[4:1],8x-3-1-3-6b[1:1],,,6x-8[4:1],6x-2-8-5b[1:1],,,5xpp8[2:1],5xqq1b[2:1],,,
6x-4[16:3]-7[16:3]-3[16:3]-1[16:3]-6[8:1],
{16}A6,,,A4,,,A7,,,A3,,,A1/3bx-5[16:3]-2[16:3]-6[16:3]-8[16:3]-3b[8:1],,A6,,
{16}A3,,,A5,,,A2,,,A6,,,A8/7x-5[16:3]-8[16:3]-4[16:3]-2[16:3]-7[8:1],,A3,,
{16}A7,,,A5,,,A8,,,A4,,,A2/1bx-3[16:3]-8[16:3]-4[16:3]-6[16:3]-1b[8:1],,A7,,
{16}A1,,,A3,,,A8,,,A4,,,A6/7x-4[16:3]-8[16:3]-3[16:3]^8[16:3]^6[8:1],,A1,,
{16}A7,,,A4,,,A8,,,A3,,,A8/2bx-5[16:3]-1[16:3]-6[16:3]^1[16:3]^3b[8:1],,A6,,
{16}A2,,,A5,,,A1,,,A6,,,A1/6x-3[16:3]-7[16:3]-2[16:3]^7[16:3]^5[8:1],,A3,,
{16}A6,,,A3,,,A7,,,A2,,,A7/3bx-6[16:3]-2[16:3]-7[16:3]^2[16:3]^4b[8:1],,A5,,
{16}A3,,,A6,,,A2,,,A7,,,A2/7x^4[16:3]-7[16:3]-2[16:3]^7[16:3]-3[8:1],,A4,,
{16}A7,,,A4,,,A7,,,A2,,,A7/2bx^5[16:3]-2[16:3]-7[16:3]^2[16:3]-6b[8:1],,A3,,
{16}A2,,,A5,,,A2,,,A7,,,A2/8x^5[16:3]-8[16:3]-3[16:3]^8[16:3]-4[8:1],,A6,,
{16}A8,,,A5,,,A8,,,A3,,,A8/3bx^6[16:3]-3[16:3]-8[16:3]^3[16:3]-7b[8:1],,A4,,
{16}A3,,,A6,,,A3,,,A8,,,A3/4x-6[16:3]-8[16:3]-2[16:3]^7[16:3]^4[8:1],,A7,,
{16}A4,,,A6,,,A8,,,A2,,,A7/5bx-3[16:3]-1[16:3]-7[16:3]^2[16:3]^5b[8:1],,A4,,
{16}A5,,,A3,,,A1,,,A7,,,A2/5x-7[16:3]-1[16:3]-3[16:3]^8[16:3]^5[8:1],,A5,,
{16}A5,,,A7,,,A1,,,A3,,,A8/4bx-2[16:3]-8[16:3]-6[16:3]^1[16:3]^4b[8:1],,A5,,
{16}A4,,,A2,,,A8,,,A6,,,A1/8x>8>8>8[1:3],,A4,,
{8}A8,,,,,,,8bx-2b[16:1]*>8>8>2[8:17],
{8}A8,,,,,,,8bx-3b[16:1]*>8>4[8:11],
{8}A8,,,,,,,8bx-4b[16:1]*>6[8:5],
{4}A8,A2,A4,A6,
{4}2bx-6b[8:1]/8x-4[8:1],,4bx-6b[8:1]/8x-6[8:1],,
{4}1bx-7b[8:1]/8x-4[8:1],,2bx-6b[8:1]/1x-7-5-3[8:1],,
{64}1x^6[8:1]`8x^5[8:1]`7x^4[8:1],,,,,,,,,,,,,,,,{4},4bxs8b[8:1]/5xz1[8:1],,
{4}4bxV26b[8:1]/8xV62[8:1],,1bx>5b[8:1]/5x<1[8:1],,
{4}4bx-2v5v8-6b[2:1],,6x<6<2b[2:1],,2xv5-7b[2:1],,7x-3>5b[2:1],,
{4}5x-8>5b[2:1],,5x-2-4-7b[2:1],,7x-5-1-3b[2:1],,3x-7>3-7^5b[2:1],,
{4}5x-8z4b[2:1],,4xp4^2b[2:1],,2xp4p6b[2:1],,6x-1-6-1b[2:1],,1x-5v8-4b[2:1],,,,
{4}8x-5[8:1]*>5b[8:1],,8x-5[8:1]*>5b[8:1],,8x-5[8:1]/3^5[8:1],,1x-6[8:1]/3-6[8:1],,
{4}7x^2[4:1],2bx-5[4:1],5x-3[4:1],2bx-6-8-4b[4:1],8x-5q4[4:1],,1bx<1b[2:1],,1x-5b[4:1],1x-7^6q5[4:1],,Cf,
{4}1bx^4b[8:1]/5x^8[8:1],1xp5[8:1]/5bxp1b[8:1],1bx^4b[8:1]/5x^8[8:1],1xp5[8:1]/5bxp1b[8:1],1bx^4b[8:1]/5x^8[8:1],1xp5[8:1]/5bxp1b[8:1],1bxV35b[8:1]/5xV71[8:1],A1/A5,
{4}1bx>5p1b[4:1],,5x<1p5[4:1],,1bx>5p1b[4:1],5x<1p5[4:1],,,
{4}1bx>5p1b[8:3]*^4b[8:1]/5x<1p5[8:3]*^8[8:1],1xp5[8:1]/5bxp1b[8:1],
{4}1bx>5p1b[8:3]*^4b[8:1]/5x<1p5[8:3]*^8[8:1],1xp5[8:1]/5bxp1b[8:1],
{4}1bx>5p1b[8:3]*^4b[8:1]/5x<1p5[8:3]*^8[8:1],1xp5[8:1]/5bxp1b[8:1],
{4}1bxV35b[8:1]/5xV71[8:1],A1/A5,7x^2v4v2^7[2:1],,A4,,2bx-5^6b[4:1],,Cf,,
{4}1bxv4b[8:1]/5xv8[8:1],1bx^6[8:1]/5x^2b[8:1],1xv4b[8:1]/5bxv8[8:1],1bx^6[8:1]/5x^2b[8:1],
{4}1xq5b[8:1]/5bxq1[8:1],1bx^6[8:1]/5x^2b[8:1],1xq6b[8:1]/5bxq2[8:1],A1/A5,
{4}1bxv4^1b[2:1]/5xv8^5[2:1],,,,1bxq5>1q6b[2:1]/5xq1<5q2[2:1],,,,
{4}1bxv4b[8:1]*v4^1b[8:3]/5xv8[8:1]*v8^5[8:3],1bx^6[8:1]/5x^2b[8:1],1bxv4b[8:1]*v4^1b[8:3]/5xv8[8:1]*v8^5[8:3],1bx^6[8:1]/5x^2b[8:1],
{4}1xq5b[8:1]*q5>1q6b[8:5]/5bxq1[8:1]*q1<5q2[8:5],1bx^6[8:1]/5x^2b[8:1],1xq6b[8:1]/5bxq2[8:1],A1/A5,
{4}7x^2v4[4:1],,2bx-5^6b[4:1],,Cf,B1/B2/B3/B4/B5/B6/B7/B8/Cf,A1/A2/A3/A4/A5/A6/A7/A8/D1/D2/D3/D4/D5/D6/D7/D8/B1/B2/B3/B4/B5/B6/B7/B8/Cf,
{4}8x^5[16:3]-7[16:3]-1[16:3]-3[16:3]-5[8:1]*^5[16:3]*^5[16:3]-7[16:3]*^5[16:3]-7[16:3]-1[16:3]*^5[16:3]-7[16:3]-1[16:3]-3[16:3],
{16}A8,,,A5,,,A7,,,A1,,,A3/4bx^1[16:3]-3[16:3]-5[16:3]-7[16:3]-1b[8:1]*^1b[16:3]*^1[16:3]-3b[16:3]*^1[16:3]-3[16:3]-5b[16:3]*^1[16:3]-3[16:3]-5[16:3]-7b[16:3],,A5,,
{16}A4,,,A1,,,A3,,,A5,,,A7/4x^7[16:3]-5[16:3]-3[16:3]-1[16:3]-7[8:1]*^7[16:3]*^7[16:3]-5[16:3]*^7[16:3]-5[16:3]-3[16:3]*^7[16:3]-5[16:3]-3[16:3]-1[16:3],,A1,,
{16}A4,,,A7,,,A5,,,A3,,,A1/1bx^4[16:3]-2[16:3]-8[16:3]-6[16:3]-4b[8:1]*^4b[16:3]*^4[16:3]-2b[16:3]*^4[16:3]-2[16:3]-8b[16:3]*^4[16:3]-2[16:3]-8[16:3]-6b[16:3],,A7,,
{16}A1,,,A4,,,A2,,,A8,,,A6/7x-3[16:3]^6[16:3]^1[16:3]>5[80:17]-1[10:1]*-3[16:3]*-3[16:3]^6[16:3]*-3[16:3]^6[16:3]^1[16:3]*-3[16:3]^6[16:3]^1[16:3]^4[16:3],,A4,,
{16}A7,,,A3,,,A6,,,A1,,,A4/2bx-6[16:3]^3[16:3]^8[16:3]<4[80:17]-8b[10:1]*-6b[16:3]*-6[16:3]^3b[16:3]*-6[16:3]^3[16:3]^8b[16:3]*-6[16:3]^3[16:3]^8[16:3]^5b[16:3],,A1,,
{16}A2,,,A6,,,A3,,,A8,,,A5/6x-2[16:3]^7[16:3]^4[16:3]>8[80:17]-4[10:1]*-2[16:3]*-2[16:3]^7[16:3]*-2[16:3]^7[16:3]^4[16:3]*-2[16:3]^7[16:3]^4[16:3]^1[16:3],,A8,,
{16}A6,,,A2,,,A7,,,A4,,,A1/3bx-7[16:3]^2[16:3]^5[16:3]<1[80:17]-5b[10:1]*-7b[16:3]*-7[16:3]^2b[16:3]*-7[16:3]^2[16:3]^5b[16:3]*-7[16:3]^2[16:3]^5[16:3]^8b[16:3],,A4,,
{16}A3,,,A7,,,A2,,,A5,,,A8/8x^5[16:3]p1[16:3]p3[16:3]^8[16:3]^5[8:1]*^5[16:3]*^5[16:3]p1[16:3]*^5[16:3]p1[16:3]p3[16:3]*^5[16:3]p1[16:3]p3[16:3]^8[16:3],,A5,,
{16}A8,,,A5,,,A1,,,A3,,,A8/1bx^4[16:3]q8[16:3]q6[16:3]^1[16:3]^4b[8:1]*^4[16:3]*^4[16:3]q8b[16:3]*^4[16:3]q8[16:3]q6b[16:3]*^4[16:3]q8[16:3]q6[16:3]^1b[16:3],,A5,,
{16}A1,,,A4,,,A8,,,A6,,,A1/7x^4[16:3]p8[16:3]p2[16:3]^7[16:3]^4[8:1]*^4[16:3]*^4[16:3]p8[16:3]*^4[16:3]p8[16:3]p2[16:3]*^4[16:3]p8[16:3]p2[16:3]^7[16:3],,A4,,
{16}A7,,,A4,,,A8,,,A2,,,A7/2bx^5[16:3]q1[16:3]q7[16:3]^2[16:3]^5b[8:1]*^5[16:3]*^5[16:3]q1b[16:3]*^5[16:3]q1[16:3]q7b[16:3]*^5[16:3]q1[16:3]q7[16:3]^2b[16:3],,A4,,
{16}A2,,,A5,,,A1,,,A7,,,A2/7x^2[16:3]p4[16:3]q3[16:3]-6[16:3]^8[8:1]*^2[16:3]*^2[16:3]p4[16:3]*^2[16:3]p4[16:3]q3[16:3]*^2[16:3]p4[16:3]q3[16:3]-6[16:3],,A5,,
{16}A7,,,A2,,,A4,,,A3,,,A6/2bx^7[16:3]q5[16:3]p6[16:3]-3[16:3]^1b[8:1]*^7b[16:3]*^7[16:3]q5b[16:3]*^7[16:3]q5[16:3]p6b[16:3]*^7[16:3]q5[16:3]p6[16:3]-3b[16:3],,A8,,
{16}A2,,,A7,,,A5,,,A6,,,A3/6x^3[16:3]q1[16:3]p2[16:3]-7[16:3]^5[8:1]*^3[16:3]*^3[16:3]q1[16:3]*^3[16:3]q1[16:3]p2[16:3]*^3[16:3]q1[16:3]p2[16:3]-7[16:3],,A1,,
{16}A6,,,A3,,,A1,,,A2,,,A7/3bx^6[16:3]p8[16:3]q7[16:3]-2[16:3]^4b[8:1]*^6b[16:3]*^6[16:3]p8b[16:3]*^6[16:3]p8[16:3]q7b[16:3]*^6[16:3]p8[16:3]q7[16:3]-2b[16:3],,A5,,
{16}A3,,,A6,,,A8,,,A7,,,A2,,A4,,
{32}4x^3-1-6^7-2^3-8-6>2[4:3],4x^3-1-6^7-2^3-8-6>2[4:3]*^3-1-6^7-2^3-8-6>2[4:3],{16},,,,,,,,,,,,,,D4f,
&inote_3=(150)
{1},,,,
{16}7b,5,7,5,7,5,7,5,7,5,7,5,7,5,7,5,
{32}6,4,{16}6,4,6,4,6,4,6,4,6,4,6,4,6,4,6,
{32}3,5,{16}3,5,3,5,3,5,3,5,3,5,3,5,3,5,3,
{32}4,2,{16}4,2,4,2,4,2,4,2,4,2,4,2,4,1,5,
{32}8b,6,{16}8,6,8,6,8,6,8,6,8,6,8,6,8,6,8,
{32}7,1,{16}7,1,7,1,7,1,7,1,7,1,7,1,7,1,7,
{32}2,8,{16}2,8,2,8,2,8,2,8,2,8,2,8,2,8,2,
{32}1,3,{16}1,3,1,3,1,3,1,3,1,3,1,3,1,4,8,
{16}7b,6,7,5,6,5,6,5,6,4,5,4,{32}6,5,{16}6,4,7,
{16}2,3,2,4,3,4,3,4,3,5,4,5,{32}3,4,{16}3,5,2,
{16}6,7,6,8,7,8,7,8,7,1,8,1,{32}7,8,{16}7,1,6,
{16}3,2,3,1,2,1,2,1,2,8,1,8,{32}2,1,{16}2,8,3,
{16}6b,5,6,4,5,4,5,4,5,3,4,3,{32}5,4,{16}5,3,6,
{16}2,3,2,4,3,4,3,4,3,5,4,5,{32}3,4,{16}3,5,2,
{16}7,8,7,1,8,1,8,1,8,2,1,2,{32}8,1,{16}8,2,7,
{16}2,1,2,8,1,8,1,8,1,7,8,7,{32}1,8,{16}1,7,1,
{16}7b,6,7,4,5,4,6,5,6,3,4,3,{32}5,4,{16}5,3,3,
{16}6,5,6,3,4,3,5,4,5,2,3,2,{32}4,3,{16}4,2,2,
{16}6,7,6,1,8,1,7,8,7,2,1,2,{32}8,1,{16}8,2,2,
{16}7,8,7,2,1,2,8,1,8,3,2,3,{32}1,2,{16}1,3,3,
{16}7b,6,7,4,5,4,6,5,6,3,4,3,{32}6,5,6,,3,4,3,,
{16}6,7,6,1,8,1,7,8,7,2,1,2,{32}7,8,7,,2,1,2,,
{16}7,6,7,4,5,4,6,5,6,3,4,3,{32}6,5,7,,3,4,2,,
{16}6,7,6,1,8,1,7,8,7,2,1,2,{32}7,8,6,,2,1,3,,
{32}6b,5,{16}6,5,6,5,6,5,6,5,6,5,6,5,6,{32}5b,6,5,6,
{32}4b,5,{16}4,5,4,5,4,5,4,5,4,5,4,5,4,{32}5b,4,5,4,
{32}4b,3,{16}4,3,4,3,4,3,4,3,4,3,4,3,4,{32}3b,4,3,4,
{4}3h[4:1],1h[4:1],7h[4:1],5h[4:1],
{16}4b,6,2,8,4,6,2,8,3,5,1,7,3,5,1,7,
{16}3,7,1,7,3,7,1,7,4,8,2,8,4,8,2,8,
{32}2,1,2,1,2,,7,8,7,8,7,,3,4,3,4,3,,6,5,6,5,6,,{16}4,5,4,5,
{16}3,6,2,7,1,8,2,7,2,6,3,7,{32}4,8,4,8,4,8,4,8,
{16}4b,8,4,7,3,6,2,5,3,4,2,6,5,7,3,4,
{16}1,6,5,8,3,4,8,6,5,1,3,2,8,1,7,8,
{32}6,5,7,4,6,5,7,,{16}4,4,{32}6,5,6,,4,,7,8,7,,1,,2,1,2,,8,3,8,,
{16}4,7,5,6,4,5,3,4,2,5,1,7,2,8,3,3,
{16}5b,3,7,1,5,3,7,1,6,4,8,2,6,4,8,2,
{16}6,2,8,2,6,2,8,2,5,1,7,1,5,1,7,1,
{32}7,8,7,8,7,,2,,2,1,2,,6,,5,,5,,4,5,4,,4,,{16}5,4,5,4,
{16}6,3,7,2,8,1,7,2,7,3,6,2,{32}5,1,5,1,5,1,5,1,
{16}5b,1,5,2,6,3,7,4,6,5,7,3,4,2,6,5,
{16}8,3,4,1,6,5,1,3,4,8,6,7,1,8,2,1,
{32}3,4,2,5,3,4,2,,{16}5,5,{32}3,4,3,,5,,2,1,2,,8,,7,8,7,,1,6,1,,
{16}5,2,4,3,5,4,6,5,{32}7b,1,8,1,7,1,8,1,{4}7b,
{32}1b,8,1,8,1,8,1,8,1,8,1,8,1,8,1,8,1,8,1,8,1,8,1,8,1,8,1,8,1,8,1,8,
{32}2b,7,2,7,2,7,2,7,2,7,2,7,3b,6,3,6,3,6,3,6,4b,5,4,5,3b,6,3,6,2b,7,2,7,
{16}1b,8,2,7,3,6,4,5,2,1,3,8,4,7,5,6,
{16}8,7,1,6,2,5,3,4,{32}2b,1,{16}2,3,8,{32}6b,5,{16}6,4,7,
{32}2b,1,2,1,2,1,2,1,2,1,2,1,2,1,2,1,2,1,2,1,2,1,2,1,2,1,2,1,2,1,2,1,
{32}3b,8,3,8,3,8,3,8,3,8,3,8,4b,7,4,7,4,7,4,7,5b,6,5,6,4b,7,4,7,3b,8,3,8,
{16}2b,1,3,8,4,7,5,6,4,5,3,4,2,5,2,7,
{32}1,8,{16}1,7,2,6,3,5,4,{32}7b,8,{16}7,1,6,{32}3b,4,{16}3,5,2,
{32}7b,8,7,8,7,8,7,8,7,8,7,8,7,8,7,8,7,8,7,8,7,8,7,8,7,8,7,8,7,8,7,8,
{32}6b,1,6,1,6,1,6,1,6,1,6,1,5b,2,5,2,5,2,5,2,4b,3,4,3,5b,2,5,2,6b,1,6,1,
{16}7b,8,6,1,5,2,4,3,{32}5,4,{16}3,4,4,5,5,6,6,
{32}8,7,{16}8,6,1,5,2,4,3,{32}8b,1,{16}8,2,7,{32}4b,5,{16}4,6,3,
{32}5b,4,5,4,5,4,5,4,5,4,5,4,5,4,5,4,5,4,5,4,5,4,5,4,5,4,5,4,5,4,5,4,
{32}6b,3,6,3,6,3,6,3,6,3,6,3,7b,2,7,2,7,2,7,2,8b,1,8,1,7b,2,7,2,6b,3,6,3,
{16}5b,4,5,3,5,2,5,1,{32}6,8,{16}6,7,6,8,1,6,2,
{32}7,3,{16}7,3,7,{32}2,8,{16}2,8,1,{32}1b,1,1,1,1,1,1,1,1b,1,1,1,1,1,1,1,
{16}1b,4,3,8,5,6,2,4,3,7,5,6,{32}2,1,2,,7,8,7,,
{16}1,8,2,8,1,7,1,8,3,8,1,6,{32}3,4,3,,6,5,6,,
{16}3,5,1,6,4,8,1,7,3,8,2,6,{32}2,1,3,,7,8,6,,
{16}4,5,6,5,4,3,4,5,7,5,4,2,{32}3,1,3,,8,2,8,,
{16}3b,5,4,6,4,5,{32}3,6,{16}3,5,4,6,3,{32}8,1,7,,1,8,2,,
{16}7,5,6,3,4,2,{32}7,1,{16}8,2,6,4,5,{32}3,1,2,,6,8,7,,
{16}3,5,4,8,2,1,{32}4,6,{16}5,6,1,7,8,{32}7,8,7,,1,8,2,,
{16}7,8,6,2,4,3,{32}1,2,{16}1,3,7,6,5,{32}4,5,4,,5,4,5,,
{32}3b,5,{16}2,8,4,7,2,{32}6,4,{16}8,2,6,1,8,{32}3b,5,2,,6b,4,8,,
{32}4b,6,{16}1,7,3,8,1,{32}5b,3,{16}7,1,5,2,7,{32}4b,6,1,,5b,3,7,,
{32}3b,6,{16}1,8,3b,7,1,{32}5b,4,{16}7,1,6,1,7,{32}3b,8,1,,6b,2,7,,
{32}4b,5,{16}2,7,4b,8,2,{32}6b,3,{16}8,2,5b,2,8,{32}4b,7,2,,5b,1,8,,
{32}3b,5b,{16}2,8,{32}4b,7,{16}2,8,{32}3b,5,{16}1,7,3b,8,1,{32}6b,4,7,,3b,5,1,,
{32}4b,6b,{16}1,7,{32}3b,8,{16}1,7,{32}4b,6b,{16}2,8,4b,7,2,{32}5b,3,8,,4b,6,2,,
{32}3b,6b,{16}1,8,{32}3b,7,{16}1,7,{32}4b,5b,{16}2,8,{32}3b,8,{16}2,7,{32}3b,5b,1,,6b,2,7,,
{32}4b,6b,2,8,1,7,3b,7,1,7,1,8,4b,5b,2,7,1,8,3b,8,1,7,2,8,3b,5b,2,8,4b,6b,1,7,
{16}4b^3-1-6^7-2^3-8-6>2[4:3]*^3-1-6^7-2^3-8-6>2[4:3],,,,,,,,,,,,,,,D4f,
&inote_4=(150)
{8}1-5[8:1],,1,,{4},,
{8}2v5[8:1]/8v5[8:1],,28,,{4},,
{8}1-5b[25#48:1],,1,,{4},,
{8},,,,{4}A1,,
{4}1b>5[4:1],5<1[4:1],1>5[4:1],5<1[4:1],1>5[4:1],5<1[4:1],1>5[4:1],5<1b[30#20:1],
{4}1>5[4:1],,1>5[4:1],1>1>5b[4800#1:24],A5,A1,,,
{4}8b<4[4:1],4>8[4:1],8<4[4:1]*p4b[30#20:1],4>8[4:1]*p8b[12.5#96:1],8<4[4:1],4>8[4:1],8<8<4[4:3],A8,,4>8[4:1]*q8b[30#20:1],8<4[4:1],4>8[4:1],8<4[4:1],,A4,A4,
{16}3b^6[16:3],,,6p2[16:3],,,7-1b[75#32:1]*-3b[100#24:1],,,,,,A7,,A7,,
{16}2^7[16:3],,,7q3[16:3],,,6-4b[100#24:1]*-2b[75#32:1],,,,,,A6,,A6,,
{16}4^1[16:3],,,1q5[16:3],,,8-6b[27.2727#88:1]*-4b[25#96:1],,,,,,8,,8,,
{16}5^8[16:3],,,8p4[16:3],,,1-3b[75#32:1]*-5b[100#24:1],,,,,,A1/A8,,A1/A8,,
{16}7bV58[16:3],,8,8p4[16:3],,,1^3b[50#48:1]*-5b[25#96:1],,,,,,1,,1,,
{16}6V85[16:3],,5/A1,5p1[16:3],,,1^7b[15.7895#152:1]*-6b[15#160:1],,,,,,1,,A1,,
{16}4-8[66.67#12:1]-2b[66.6667#18:1]-4[66.6667#18:1],,8,8-2[66.6667#18:1]-4b[66.6667#18:1],,,2-4b[75#16:1],,,A4,,,A8,,A2,,
{16}2^8[16:3],,8,8q4[16:3],,,2^4b[100#24:1]*-5b[75#32:1],,,,,,A1/A2,,A1/A2,,
{16}2b^7[16:3],,7,7q3[16:3],,,6-4b[75#32:1]*-2b[100#24:1],,,,,,A6,,A6,,
{16}3^6[16:3],,6,6p2[16:3],,,7-1b[100#24:1]*-3b[75#32:1],,,,,,A7,,A7,,
{16}1^4[16:3],,4,4p8[16:3],,,5-7b[25#96:1]*-1b[27.2727#88:1],,,,,,5,,5,,
{16}8^5[16:3],,5,5q1[16:3],,,4-2b[100#24:1]*-8b[75#32:1],,,,,,A4/A5,,A4/A5,,
{16}6bV85[16:3],,5,5q1[16:3],,4,4^2b[50#48:1]*-8b[25#96:1],,,,,,4,,4,,
{16}7V58[16:3],,8/A4,8q4[16:3],,4,4^6b[15#160:1]*-7b[15.7895#152:1],,,,,,4,,A4,,
{16}1-5b[42.8571#28:1],,5,5V31b[66.6667#18:1],,3,3-1b[200#6:1],,,A3,,,A5,,A1,,
{16}3^5[16:3],,5,5p1[16:3],,,3^1b[75#32:1]*-8b[100#24:1],,,,,,A4/A3,,A4/A3,,
{16}7b-3b[12.5#96:1],8,7,8,7,8,7,8,7,8,7,8,7,8,7b,8,
{16}8b-4b[16.6667#72:1],1,8,1,8,1,8,1,8,1,8,1,8,1,8b,1,
{16}1b-5b[21.4286#56:1],2,1,2,1,2,1,2,1,2,1,2,1,2,1b,2-6b[66.6667#18:1],
{4}A7,A8,A2,A1,
{8}2b-6b[10.3448#116:1]/6,,8,1,2^4b[50#24:1],,4,5,6^8b[100#12:1],,A2,A6,2,,,,
{8}6-2b[25#48:1]/2,,8,7,6^8b[50#24:1],,4,3,2^4b[100#12:1],,A6,A2,A6,A2,,,
{8}2-6b[30#40:1]*^4b[8:1]/8^6b[37.5#32:1]*-4b[18.75#64:1],3,A2/8,7,28,3,28,7,2/A8,3,A2/8,7,28,3,28,7,2/A8,3,28,7,2^4b[30#40:1]/8^6b[75#16:1],3,28,7,2/A8,3,28,7,28,3,A2/8,7,
{4}2b-6[8:1]/7b^5[8:1],2^4[8:1]/7^1[8:1],7p3[8:1],,
{4}7-3[8:1]/2^4[8:1],7^5[8:1]/2^8[8:1],2q6[8:1],,
{4}2-6[8:1]/7^5b[50#24:1],2^4[8:1]/7^1[8:1],7p3[8:1],A7,
{4}7-3[8:1]/2^4[8:1],7^5b[75#16:1]/2^8b[75#16:1],{32}2q6b[4800#1:4],A2,,,{16},,{4}A7/A2,
{4}3b^6[8:1]/6b^1[8:1],
{4}3V14[8:1],3^8[8:1]/6^3[8:1],6V85[8:1],3^6[8:1]/6^1[8:1],
{4}3V14[8:1],3^8[8:1]/6^3[8:1],,
{4}3^6[8:1]/6^1[8:1],3V15b[37.5#32:1],3^8[8:1]/6^3[8:1],6V84b[75#16:1],3V15[8:1]/6V84[8:1],
{4}A3/A6,1-5b[16:1],A1,
{16}3b,8,5,8,2,8,4,8,6,8,8,8,8,8,8,8,8,8,8,8,8,8,8,8,8,8,8,8-6b[18.1818#132:1],8-5b[50#48:1],8-4b[22.2222#108:1],8-3b[300#8:1],8-2b[35.2941#68:1],
{4}A8,,A8,,A8,,A8,A8,
{16}4b,8,6,8,2,8,3,8,5,8,8,8,8,8,8,8,8,8,8,8,8,8,8,8,8,8,8,8-6b[46.1538#52:1],8-5b[18.75#128:1],8-4b[200#12:1],8-3b[23.0769#104:1],8-2b[35.2941#68:1],
{4}A8,,A8,,A8,,A8,A8,
{16}6b,8,3,8,5,8,4,8,2,8,8,8,8,8,8,8,8,8,8,8,8,8,8,8,8,8,8,8-6b[120#20:1],8-5b[30#80:1],8-4b[22.2222#108:1],8-3b[60#40:1],8-2b[20.6897#116:1],
{4}A8,,A8,,A8,,A8,A8,
{16}4b,8,5,8,3,8,6,8,2,8,8,8,8,8,8,8,8,8,8,8,8,8,8,8,8,8,8,8-6b[24#100:1],8-5b[50#48:1],8-4b[200#12:1],8-3b[33.3333#72:1],8-2b[24#100:1],
{4}A8,,A8,,A8,A8,A8,,
{16}1b/5b,,3,2^5b[66.6667#18:1],,1,8-4b[75#16:1],,,46,,,A2,,A8,,
{16}1,,3,2-8b[66.6667#18:1],,8,7-3b[75#16:1],,,35,,,A2,,A7,,
{16}4,,2,3^8b[66.6667#18:1],,4,5-1b[75#16:1],,,17,,,A3,,A5,,
{16}4,,2,3-5b[66.6667#18:1],,5,6-2b[75#16:1],,,28,,,A3,,A6,,
{16}4b,,{32}6,5,{16}7^4b[66.6667#18:1],,{32}1,8,{16}1-5b[75#16:1],,,53,,,A7,,A1,,
{16}8,,{32}6,5,{16}7-1b[54.5454#22:1],,{32}1,3,{16}2-6b[100#12:1],,,64,,,A2,,A7,,
{16}3,,{32}1,8,{16}2^7b[54.5454#22:1],,{32}4,3,{16}4-8b[100#12:1],,,86,,,A4,,A2,,
{16}6,,{32}8,1,{16}7-5b[66.6667#18:1],,{32}5,3,{16}4-8b[100#12:1],,,82,,,A7/A4,,,,
{16}2b/5bV73b[66.6667#12:1],,3-8b[60#20:1],4,,7,6,,,A5,,,A3,,1,,
{16}4b-1b[300#4:1]/5,,A4,6-8b[100#12:1],,7-4b[66.6667#18:1],3-8b[100#12:1],,,A6,,,A3,,A7,,
{16}3bV15b[66.6667#12:1],,5-8b[60#20:1],4,,1,2,,,A3,,,A5,,7,,
{16}5b-8b[300#4:1]/4,,A5,3-1b[100#12:1],,2-5b[85.7143#14:1],6-1b[100#12:1],,,A3,,,A6/A2,,,,
{16}2b/5bV73b[66.6667#12:1],,{32}3-8b[42.8571#56:1],4,{16}3,,{32}7,6,{16}7,,,8/A5,,,2b,,1b,,
{16}4b-1b[300#4:1]/A3,,{32}A4,6-8b[92.3077#13:1],{16}4,,{32}7-4b[85.7143#14:1],3-8b[92.3077#13:1],{16}7,,,A6,,,A3f/A7f,,,,
{16}7/4V26b[18.75#64:1],,{32}6-1b[60#20:1],5,{16}6,,{32}2,3,{16}2,,,15,,,A6f,,8b,,
{16}5-8b[200#12:1]/4,,{32}5,3-1b[92.3077#13:1],{16}A5,,{32}2-5b[66.6667#18:1],6-1b[92.3077#26:3],{16}2,,,A3,,,A6f,,A2f,,
{16}A4`4x^3-1-6^7-2^3-8-6>2b[4:3],,,,,,,,,,,,,,,D4f,
