&title=KEY
&artist=Mylta
&first=-0.02
&des=Kagura
&lv_5=14
&des_5=Kagura
&inote_5=
(172){4},,,Cf,
{8}2/5,{16}3,4,{8}3,5/2-6[8:1],6-2[8:1],2,,,8<5[8:1],
3-8[8:1],{4}8w4[8:1],{8},,6/1,{16}7,8,
{8}7,1/6-2[8:1],2-6[8:1],6,,,4qq8[2:1]*pp8[2:1],4,
{4}4b,,,Cf,
{8}7/4,{16}6,5,{8}6,4/7-3[8:1],3w7[8:1],7,,,1>4[8:1],
6-1[8:1],{4}1w5[8:1],{8},,3/8,{16}2,1,
{8}2,8/3-7[8:1],7w3[8:1],3,,,5s1[2:1],5,
{2}5b,{4}Cfh[4:1],8b,
{8},,,,,,,,,,,,,3,
,2-5[8:1],
5-2[8:1],2-8-4-2[2:1],6,6,,7h[8:1],,6h[8:1],
,5h[8:1],,6/2,{4}1b/7b,1-3[8:1],
4/1,5-1[8:1],5/2,3-8[8:1],
3/7,6-3[8:1],6/1,{8}2/4,2/4,
1/5,1/5,6/8,6/8,1-5[8:1]/7-3[8:1],3/5,{32}1/7,Cf,,,,,,,{16}6,
2,6,2,7,1,7,1,{32}8b,B8,C,B4,,,,,{4}2bh[8:1]/6bh[8:1],
{16}3,6,5,6,2,5,4,5,1,4,3,4,{4}2/5,
{16}3,5,4,5,2-6[8:1],4,3,5,{4}2,1b/7b,
{16}7,1,7,1,{8}8<5[8:1],2,8-4[8:1],4-8[8:1],{4}8,
{8}3,7,{16}2,8,2,8,1x-4[8:1],1x,1x,1x,{4}1x,
{16}6,3,4,3,7,4,5,4,8,5,6,5,{4}7/4,
{16}6,4,5,4,7-3[8:1],5,6,4,{4}7,8b/2b,
{16}1,7,3,5,2,8,4,6,3,7,2,6,{8}1,{16}B1,B2,
E3,B3,B4,E5,E1,B8,B7,E7,5x,4x,3x,2x,{4}1x-5[8:1],
1b/8bV64[8:13],E3,,E2,
{8},,1,1,2-8[8:1],2,{4}2b-6[8:1],
2/6,{16}7,8,7,8,7,8,{8}7h[8:5],1<3[16:3],1,
{16},,,,D3,D2,D1,D8,D7,D6,D5,D4,{4}Cf,
{16}2,7,8,7,3,8,1,8,4,1,2,1,3,8,3,8,
2,7,2,7,1-5[8:1],6,1,6,{4}1,3b/7b,
{16}3,4,2,6,5,7,2,4,1,7,5,8,{4}2h,
2h,1h,1q6[4:1]*>6[4:1],{32}D2f,A2,D3,A3,D4,A4,D5,A5,
{4}D6,{8}7-4[8:1],8/1,{4}7qq8[8:7],{32}1,2x,{16}3x,{32},,,,1,
2x,{16}3x,{32},,,,1-5[8:1],2x,{16}3x,,,{4}1,{8}7-4[8:1],4-7[8:1],
{4}7>5[16:5],{16}D8,D1,D2,D3,{4}D4f,{16}1,4,1,4,
8,5,8,5,1,4,2,5,3,6,4,7,{32}3b,2,1,8,7,6,5,4,
{4}3,{8}2-5[8:1],1/8,{4}2pp1[8:7],{32}8,7x,{16}6x,{32},,,,8,
7x,{16}6x,{32},,,,8-4[8:1],7x,{16}6x,,,{4}8,{8}2-5[8:1],5-2[8:1],
{4}2<4[16:5],{16}D2,D1,D8,D7,{4}D6f,{16}8,5,8,5,
1,4,1,4,{12}8,8,8,4,4,4,3bh[8:3]/7bh[8:3],,,,,,{4}B7/B3`Cf,
{16}6,5,7,4,6,8,1,4,
6,5,7,4,6,5,8,1,{32}6,5,4,3,2,1,8,7,{4}6bh[8:3]/2bh[8:3],
,B2/B6`Cf,{16}3,4,2,5,3,1,8,5,
3,4,2,5,3,4,1,8,{32}3,4,5,6,7,8,1,2,{4}3bh[8:3]/7bh[8:3],
,E2f/E6f/B6/B5/B1/B2,{16}3,5,4,5,4,7,4,7,
2,5,4,5,4,7,4,7,3,5,4,5,{4}2bh[8:3]/6bh[8:3],
,E4f/E8f/B7/B8/B4/B3,{16}2,1,3,8,4,7,5,6,
3,4,2,5,1,6,8,7,1-5[8:1],8,3,6,{4}1bqq4[4:5],
E8f/B8/B7,{16},,,,,,,,6,,,7,
,,{8}8,{4}8b,{8},,7-4[8:1],8,
1,2-5[8:1],1,8,7,7,6-1[8:1],5,
4,3-8[8:1],4,5,6,6,{4}1h[8:3],
{8},7h[8:9],,,,,{4}1,
2,{8}3,7,1,5,{4}C,
{8}6,4h[2:1],,7>3>7[4:3],,7,,,{4}5-1[8:1],
5,{8},,2>5[8:1],1,
1,8<5[8:1],1,1,2,3,4>1[8:1],5,
5,6<1[8:1],5,5,4,4,{4}3qq8[2:1],
{8},7-4[8:1],{16},,,,,,5x,6x,{8}7x/1>4[8:1],2,
8-5[8:1],7,2-7[8:1],1,6,6,5<8[8:1],4,
4,3>8[8:1],4,4,5,6,7<4[8:1],8,
8,1>4[8:1],8,8,7,7,{4}Ch[1:2]/6<3-8-6-4[4:7],
,,,,,,,B8/B1/E1f,
,,,1,
1,2/1h[4:1],2,3,
3,5/4h[4:1],5,6,
6,{16}8,7,{8}1,{4}8,2-5[8:1],
2/6,1-4[8:1],1/7,7-4[8:1],
7/3,8-5[8:1],8/2,{8}3/4,3/4,
2/5,2/5,1/6,1/6,7<4V28[8:5]/2pp4V68[8:5],3/8,{4}2/7,
,,,1b,
{32}2bx,E3,E4,E5,,,2bx,E2,E1,E8,,,2bx,E3,E4,E5,,,2bx,E2,E1,E8,,,2bx,E3,E4,E5,,,2bx,E2,
E1,E8,,,2bx,E3,E4,E5,,,2bx,E2,E1,E8,,,2bx,E3,E4,E5,,,,,{4}E1f/B8/B1,
{16}2-5[16:1],,,6-1[16:1],,,{8}3-8[16:1],{16},7-4[16:1],,,1-5[16:1],,,6-2[16:1],
,,{8}4>5b[4:1],,,,,{4}8b,
{32}7bx,E7,E6,E5,,,7bx,E8,E1,E2,,,7bx,E7,E6,E5,,,7bx,E8,E1,E2,,,7bx,E7,E6,E5,,,7bx,E8,
E1,E2,,,7bx,E7,E6,E5,,,7bx,E8,E1,E2,,,7bx,E7,E6,E5,,,,,{4}E1f/B8/B1,
{16}7-4[16:1],,,8-5[16:1],,,{8}1-4[16:1],{16},2-5[16:1],,,6-8[16:1],,,4-2[16:1],
,,{8}1,1-5[8:1],1<6[8:1],,,{4}2b,
{32}1b/7,6x,{16}5x,{32},,8b/2,3x,{8}4x,{32}1b/7,6x,{16}5x,{32},,8b/2,3x,{8}4x,{32}3b/8,7x,{16}6x,{32},,2b/7,6x,
{8}5x,{32}6b/1,2x,{16}3x,{32},,7b/2,3x,{8}4x,{16}7-4[8:1],3,7,3,{4}7,
{16}5h[8:1]/3h[8:1],,,6h[8:1]/4h[8:1],,,{8}2h[8:1]/4h[8:1],{16},7h[8:1]/5h[8:1],,,3h[8:1]/1h[8:1],,,6h[8:1]/8h[8:1],
,,{8}2/8,{16}1,7,3,5,2,8,4,6,{4}Cf,
{32}8b/2,3x,{16}4x,{32},,1b/7,6x,{8}5x,{32}8b/2,3x,{16}4x,{32},,1b/7,6x,{8}5x,{32}6b/1,2x,{16}3x,{32},,7b/2,3x,
{8}4x,{32}3b/8,7x,{16}6x,{32},,2b/7,6x,{8}5x,{16}3-8[8:1],7,3,7,{4}3,
{16}1xh[8:1]/7h[8:1],,,2h[8:1]/8h[8:1],,,{8}6h[8:1]/8h[8:1],{16},3h[8:1]/1h[8:1],,,{4}5>3[8:1]/7>1[8:1],
7bq1[8:3]/5bqq1[8:3],{32},,,,,,,,,,,,,,,,A2f,D3/E3,A3,D4/E4,A4,E5/D5,A5,E6/D6,
A6,D7/E7,A7,D8/E8,A8,D1/E1,A1,D2/E2,{4}A2,{32}2/7-1[8:1],6,{16}5,,,{4}7/4,
{32}2/7-1[8:1],6,{16}5,,,{8}7-4[8:1],3-8[8:1],7,3,{4}6bh[2:1],
{32}E1/D1,E2/D2,E3/D3,E4/D4,E5/D5,E6/D6,E7/D7,E8/D8,{4}E1f/D1,{8}2/6,1/5,{32}1/5h[8:1],2,{16}3,{32},,,,1/5h[8:1],
8,{16}7,{32},,,,1/5,2,3,4,5,6,7,8,1x<1<8<7<6>5>4>3>2<1[2:1],2x,3x,4x,5x,6x,7x,8x,1x,E1,E8,E7,E6,E5,E4,E3,
E2,E1,E8,E7,E6,E5,E4,E3,{4}E2f,{8}7,7,{32}7/2-8[8:1],3,{16}4,,,{8}2-5[8:1],
6-1[8:1],2-7[8:1],6-3[8:1],2,6,{4}1bV37[4:1]*-4-8[4:1],
,A7/A8`D8f,{2}6bV41[4:1]/5bV72[4:1],
{4}A1/A2`D2f,{8}8-4[8:1],4w8[8:1],{32},,,,,,,,,,,,,,,,8,
7,6,5,4,3,2,1,{4}8b,{32}7/2-8[8:1],3,{16}4,,,{4}2/5,
{32}7/2-8[8:1],3,{16}4,,,{8}2-5[8:1],6-1[8:1],2,6,{4}3bh[2:1],
{32}E1/D1,E8/D8,E7/D7,E6/D6,E5/D5,E4/D4,E3/D3,E2/D2,{4}E1f/D1,{8}7/3,8/4,{32}8/4h[8:1],7,{16}6,{32},,,,8/4h[8:1],
1,{16}2,{32},,,,8/4,7,6,5,4,3,2,1,8-4[8:1],7,6,5,4,3,2,1,8qq4b[4:3],Cf,,,,,,,,,,,,,,,,,,,{8}3-1[8:1],
,3,,,{4}2bh[4:1],
{16}8,1,3,4,8,1,6,5,{4}7bh[8:3],
{16},,4,7,8,7,1,6,5,6,5,8,3,8,2,5,
4,5,{8}6bqq1[4:1]/3bpp8[4:1],,,,,{4}2b/7b,
{16},,,C,,,,,,,,,,,,,{4}B2,
C,{2}B6,
{4},4h,{2}6h,
{16},2h,,,,,,,,,{8}8-4b[8:31],,,,,,,{2}3h[4:13],
E
