&title=Einherjar Joker
&artist= DJ Genki vs Gram
&first=0
&des=Kaname Rin
&lv_5=15+
&inote_5=(222){1},
{12}8,1h[12:23],,,,,,,,,,,{1}E1,7h[1:2],E7,
{12}6,5,4h[12:22],,,,,,,,,,{2}E5,E4,
{12}3,2,1,8h[8:9],,,,,,,,,1h[8:3],,,,,,{8}1,2,3,4,
{4}5b/1bqq5[4:4],,,,5-7-3-1b[4:4],,3,,
{4}1p8<3[4:4],,2,,3w7b[4:2],,,,
{4}6/8pp4[4:4],,,,4-6-2-8b[4:4],,,,
{4}8w4[4:2],,,,4x-8b[8:1],,{16}1,8,1,8,1,,,,
{8}5b/6b,4b/7b,,3b/4b,2b/5b,,1b/8b,2b/7b,{16}2,1,2,1,3,8,3,8,4,7,4,7,5,6,5,6,
{8}8b/7b,1b/6b,,2b/1b,3b/8b,,4b/5b,3b/6b,{16}6,5,6,5,7,4,7,4,8,3,8,3,{32}8,7,6,5,1,8,7,6,
{8}5b/1b,5b/1b,,3b/7b,3b/7b,,5b/1b,6b/2b,{16}3,4,3,4,2,5,2,5,1,6,1,6,8,7,8,7,
{8}1b/6b,1b/5b,,2b/7b,3b/7b,,8b/5b,8b/4b,,1b/6b,1b/5b,,{16}27,,1,8,{32}1h,2h,3h,4h,5h,6h,7h,8h,
{8}1b-5[8:1],1,7p3[8:1],7,2>5[8:1],2,6<1[8:1],6,
{8}3v8[8:1],3,7v4[8:1],7,1>4[8:1]*<6[8:1],1,1b,,
{8}5bq1[8:1],5,4p8[8:1],4,7<4[8:1],7,1>4[8:1],1,
{8}6-2[8:1],6,5-1[8:1],5,4-8[8:1],4,3b,,
{16}2b,1,2,1,2,1,2,1,2q6[8:1],1,2,1,2b,,,,
{16}7,8,7,8,7,8,7,8,7p3[8:1],8,7,8,7b,,,,
{16}2q6[8:1],1,2,1,2b,,,,7p3[8:1],8,7,8,7b,,,,
{16}2,1,2,1,2,1,2,1,{32}2b,3,4,5,6,7,8,1,2b,3,4,5,6,7,8,1,
{4}2b/5bw1[4:4],,,,,,1x-4[8:1]/8x-5[8:1],,
{8}4x/5x,4,45,3,35,3,25,3,45,2,35,4,35,3,4h[8:1]/5,,
{8}46,6,64,5,54,5,74,6,54,7,64,5,64,6,7h[8:2]/4,,
{8}1bx,1,17,8,87,8,17,2,37,2,17,8,17,1,2h[8:1]/7,,
{8}28,8,82,1,12,1,38,38,{16}12,,,45,,,78,,{8}1-5[8:1]/8-4[8:1],27,1b/8b,,
{16}3x/6x,,6,5,7,,38,,2,4,3,,15,,6,8,7,,27,,2,1,3,,48,,7,5,6,5,7,,
{16}38,,3,1,2,,25,,5,4,6,,47,,5,6,4,,16,,7,8,6,,15,,2,4,3,5,4,,
{16}26,,3-1[8:1],5,4,,37,,6-4[8:1],8,7,,16,,2,,
{16}37,,2-4[8:1],8,1,,26,,7-1[8:1],5,6,,47,,3,,
{16}2q5[8:13]/6,,,,,,,,,,,,,,,,
{16}1,8,1,8,1,8,1,8,1q5b[8:1],8,1,8,1b,,,,
{16}7,8,7,8,7,8,6,1,6,1,6,1,7,8,7,8,7,8,1,6,1,6,1,6,7,8,1,6,7,8,7,,
{16}2,1,2,1,2,1,3,8,3,8,3,8,2,1,2,1,2,1,8,3,8,3,8,3,2,1,8,3,2,1,2,,
{16}6,4,6,4,6,4,7,5,7,5,7,5,6,4,6,4,6,4,5,3,5,3,5,3,6,4,5,3,5,4,6,,
{16}3,1,3,1,3,1,2,8,2,8,2,8,1,7,1,7,1,7,2,8,2,8,2,8,1,7,2,8,2,7,1,,
{16}6,5,7,5,8,5,1,5,1,4,1,3,1,2,8,2,7,2,6,3,5,4,6,5,7,4,7,4,6,5,6,,
{16}3,4,3,5,3,6,3,7,2,7,1,7,8,7,8,6,8,5,8,4,1,5,2,6,3,7,4,8,5,1,4,,
{16}2b,1,3,8,2,1,3,8,2q6[8:1],1,2,1,2b,,,,
{16}7,8,6,1,7,8,6,1,7p3[8:1],8,7,8,7b,,,,
{16}2q6[8:1],1,3,8,2b,,,,7p3[8:1],8,6,1,7b,,,,
{16}2,8,4,5,1,7,3,6,4,5,2,8,3,7,1,6,
{4}8bpp6b[4:4],,,,6-3-8-5[4:4],,,{8}7,6,
{4}5>3[4:1]*<8qq3b[4:4],,,,3-7-5-1[4:4],,,,
{4}1b-7[4:1]*pp7b[4:4],,,,7-4-2v8[4:4],,6,7,
{4}8>2[4:1]*<3p2b[4:4],,,,2w6[8:3],,,,
{12}2h,1,3,8,4,7,2h,1,3,8,4,7,
{12}8h,7,1,6,2,5,8h,7,1,6,2,5,
{12}5h,6,4,7,3,8,5h,6,4,7,3,8,
{12}3h,4,2,5,1,6,3h,4,2,5,1,6,
{12}2,4,3,7,5,6,2,4,3,7,5,6,
{12}1,4,3,8,5,6,1,4,3,8,5,6,
{12}1,3,2,8,6,7,1,3,2,8,6,7,
{12}2,1,2,7,8,7,{24}2,3,4,8,7,6,1-5b[8:1],2,3,7,6,5,
{4}1b,,,,,,,,
{16}Chf[4:6]/A8,A7,A6,A5,A4,,B4,B5,B6,B7,B8,,A8,A7,A6,A5,A4,,B4,B5,B6,B7,B8,,{4}8xw4b[8:1],,
{16}2,1,3,8,{24}2,3,4,7,6,5,{16}1>5[8:1],,,6,1,,7,,
{16}8<4[8:1],,,3,8,,2,,1<5[8:1],,,3,1,,4,,
{16}3,4,2,4,1h[8:1],,7,8,6,8,5h[8:1],,2,7,1,8,
{32}2,3,4,,7,,7,,1,2,3,,5,,5,,2,3,4,,7,6,5,,1,2,3,4,5,6,7,8,
{16}1b/5b,,,3b/7b,,,1b/5b,,{32}6,5,4,,2,1,8,,6,5,4,3,2,1,8,7,
{16}6b/2b,,,4b/8b,,,6b/2b,,{32}1,2,3,4,8,7,6,5,1,2,3,4,8,7,6,5,
{16}2b,,8,76,5,,56,,47,,2,34,5,,36,,2,7,4,5,2,8,3,6,1-5b[8:1],7,3,5,1b,,,,
{16}7,8,6,1,{24}7,6,5,4,3,2,{16}8<4[8:1]/1,,,3,8,,2,,
{16}1>5[8:1],,,6,1,,7,,8>4[8:1],,,6,8,,5,,
{16}7,5,6,5,8h[8:1],,3,1,2,1,4h[8:1],,7<4[8:1],2,8,1,
{16}7>2[8:1],,3,3,7-3[8:1],,4,4,7,,2,2,{32}8,7,6,5,4,3,2,1,
{16}8b/4b,,,6b/2b,,,8b/4b,,{32}3,4,5,,7,8,1,,3,4,5,6,7,8,1,2,
{16}3b/7b,,,5b/1b,,,3b/7b,,{32}8,7,6,5,1,2,3,4,8,7,6,5,1,2,3,4,
{16}7,8,7,6,5,4,2,1,{32}2,3,4,5,6,,,,7,6,5,4,3,,,,{8}2-5[8:1],5-2[8:1],2-7[8:1],7V52[4:1],7-2[8:1],,,,
{32}1h[8:1]/2b,3,4,5,6,,,,8h[8:1]/7b,6,5,4,3,,,,4b/8b,15,26,37,48,,,,
{16}4b,5,4,5,3b,6,4,5,2b,7,4,5,1b-5b[8:1],7,3,5,1b,,,,
{8}46,46,,35,35,,57,57,,35,35,,16,25,34,34,
{8}25,25,,47,47,,24,24,,57,57,,{16}2q6b[8:1]/8,,1,8,2b,,,,
{16}47,,6,5,7,,38,,2,4,3,,15,,6,8,7,,27,,2,1,3,,48,,7,5,6,5,7,,
{16}38,,3,1,2,,25,,5,4,6,,47,,5,6,4,,16,,7,8,7,,1-5b[8:1]/8-4b[8:1],,27,,1b/8b,,,,
{16}4hx[4:1]/5x,6,7,8,1,,1h[4:1]/2,3,4,5,6,,7h[4:1]/6,5,4,3,2,,2h[4:1]/1,8,7,6,5,,45,6,7,8,12,8,7,6,
{16}5h[16:3]/4,3,2,1,85,,8h[16:3]/7,6,5,4,38,,2h[16:3]/3,4,5,6,72,,7h[16:3]/8,1,2,3,47,,4-8b[8:1]/5-1b[8:1],,36,,4b/5b,,,,
{16}2,1,2,1,2,1,2,1,2q6[8:1]*>6[8:1],1,2,1,2b,,,,
{16}7,8,7,8,7,8,7,8,7p3[8:1]*<3[8:1],8,7,8,7b,,,,
{24}2-6b[8:1],1,2,1,2,1,2b,,,,,,7-3b[8:1],8,7,8,7,8,7b,,,,,,
(222){16}4,5,4,5,3,6,3,6,{24}2,7,2,7,2,7,{32}1,8,7,6,51,48,37,26,
{1}1bp8>7p6[4:15]/5bp4<3p2[4:15],,,,,E
