&title=氮
&artist=坏枪
&first=3.57
&des=Luxhier
&lv_5=14
&inote_5=(170)
{1}6-8-4[1:12]*-8-4^3b[8:119]/2-4-8[1:12],,,,,,,,,,,,,,,1-4-8-5[4:14],,,,
{4}8-5[4:1],,1-4-8[2:1],,,,,,34,,,,,,E3,B3,B4,,6-8-5-1^2[1:1],,,,,,
{64},,,3,4,,,,,,,,,,,,{4},,,,,E7,B6,B5,,
{32}5-8-4-1[16:15],D6,,,,,,,{8}1,,2h[8:2],,,3h[8:2],,,4h[8:2],,8,8h[8:7],,,,,,,C,,,,
{8}4,,36,,2q5[1:1]/7,,,,C,,8,,8h[8:2],,,7h[8:2],,,6h[8:3],,,2h[4:1],,6h[4:1],,4h[4:1],,{16}7h[16:4],,,,3h[8:1],,6h[8:1],,2h[8:1],,5w1[6:1],,,,,,,,C,,,,,,,,
3^1-5-8-6[1:1],,,,{8}6,,5,,4,,4,,5,,
{1}5,
{4}3,,37,8,3b/Cf,,,,C,,4,4,C,,,,
{8}E8,,B8,C,B4,,E4,B8/B1,
3,3h[4:1],,6,6,5,4,3,12,8,12,3,1-5[8:1]/2-6[8:1],8,1b/2b,,
,7,83,2,7,28,8,,
3,26,1,6,7-4[8:1]/2,2,7/1,1,
{16},,6,,37,,2,,47,,5,6,5,,47,,
{16}54,,3,,62,,7,,52,,4,3,4,,52,,
E3/6,,6h[8:1],,3,,3,,E7/3,,3h[8:1],,6,,6,,
E3/6,,6h[8:1],,3,,3,,E7/3,,3h[8:1],,6,,
{64},E4,E8,B4,B8,B5,B1,E6/E2/Cf,,,,,,,,,,,,,,,,,B6/B5/B4/B3,,,,,,,,,,,,,,,,Cf,,,,,,,,,,,,,,,,B1/B2/B8/B7,,,,,,,,,,,,,,,,
{8}35,3,46,65,7b/8b,1b/2b,3b/4b,,
{16}56,,5,6,5,,56,,47,,38,,8,,8,,
{8}48,4h[8:1],7,7h[8:1],2,2h[8:1],8,8h[8:1],
{16}1b,,5b/6b,,8b,,3b/4b,,
{8}2,2h[8:1],,2-6^4[2:1],Ch[2:1]f,,,,,,,,
{2}Cf,Cf/B1/B2/B3/B4/B5/B6/B7/B8,Cf/B1/B2/B3/B4/B5/B6/B7/B8/E1/E2/E3/E4/E5/E6/E7/E8,Cf/B1/B2/B3/B4/B5/B6/B7/B8/E1/E2/E3/E4/E5/E6/E7/E8/A1/A2/A3/A4/A5/A6/A7/A8,
4b,{4},
{64}E8,B7,B6,E6,,,,,,,,,,,,,E4,B3,B2,E2,,,,,,,,,,,,,E8,C,E4,,,,,,,,,,,,,,E8/B7/B6/E6/E4/B3/B2/E2/E8/C/E4,,,,,,,,,,,,,,,,,,,,,,,,{8}B8/B1,
{16}4xbh[8:1],,6,5,8h[8:1],,4,,6,4,7h[8:1],,4,,5b/4b,,
{16}3x,,6,4,8,,3b/4b,,5,,3,4,2,,53,,
{16}7x/2x,,4,5,3,,6b/1b,,26,,5,4,6,,3b/7b,,
{16}7x/4x,,6,5,7,,74,,3,4,3,4,3,,5b/2b,,
{16}3x/8x,,2,1,2,,38,,12,,34,,56,,7b/8b,,
{16}1x,,1,,1,,8,1,{8}7-4[12:1],8,2-5[12:1],1b,
{16}6x,,6,,6,,{16}6,4x,6,,6xb/4xb,,4,,4,,
{16}3x,4,3,,6,5,6,,8,7,8,7,1,8,1,,
{16}6xh[8:1],,4,5,3,,3h[8:1],,6xh[8:1],,4,5,3,,3h[8:1],,
{16}7x,8,7,8,7,,16,,2x,1,2,1,2,,38,,
{16}4x/5x,,56,,45,,34,,4,5,4,,36,,36,,
{16}4x,5,3,6,2,7,1,8,1,,1,,1,,1,,
{8}5x/6x,7,8,8x/1x,34,2,1x/7x,1x/8x,
{8}Chf[1:1],,,,,,B7,,
{8},,,Cf,,,
{16}4hx[8:1],,6x,5x,7x,4x,7,4,8,3,8,3,1,2,1,2,1,,1,,
{16}1x,,2,,3-1[8:1],,8,,8,,7,,6,,5,4,
{16}5x,,6,,7-5[8:1],,8,1,7x,,3,,2,,1,,
{16}4x,2,5,3,6x,4,7,5,7x,5,6,5,7x,4,5,,
{16}3x,5,4,6,2x,5,4,6,1x,5,4,6,2x,5,4,6,
{16}3,,4,,6,,5,,4,5,4,5,3,,6,4,
{16}5,,5,,5,,5w1[4:1],,5,,,,,,,,
{8}Ch[16:11],,,,,,E6/E8/B6/B7/Ch[16:3],,{16}B3/B2/E2/Ch[8:1],,,E8/E4/Ch[8:1],,,Ch[8:1],,
{16}B4/E4,E8/B8,E6/B6,E2/B2,E7,E3,E5,E1,
{16},,6,5,6,,6,,6b,3,6,,6,3,6,,
{16}6,4,6,4,6,,73,,2b/5b,,3,4,3,,25,,
{8}45,34,45,56,{16}3,,3,4,3,,3,4,3<1[16:5],,,,,,,,,,{48}2x,3x,4x,5x,6x,7x,8x,1x,2x,3x,4x,5x,6x,7x,8x,1x,2x,3x,
{16}6,,6,5,6,,6,5,6,,6,,7,,
{16}3,4,3,,3,4,3,,3,4,3,,3,,
{1}6b/2b^1-4-8-5>7<7<7[4:14],,,,
{16},,B8/B1,,
{16}4x/3x,,7,,6x/5x,,2,,2,1,2,,78,,78,,
{16}6x,5,6,,12,,83,,6,5,6,5,7,,84,,
{16}3x,,3,4,3,,25,,7-3[8:1],,4-1[8:1],,7,,4,,
{16}5x,,62,,73,,84,,12,,34,,56,,78,,
{8}1x/B5/B4,1,2/B5/B4/C,2,3/B5/B4/B8/B1,3,4/B5/B4/B8/B1/C,4,
{16}4x,,4,5,4,6,4,,45,,1,,45,,8,,
{16}5x,4,6,5,7,,3,,3x/6x,,4,5,4,,36,,
{16}2x,5,2,,2,,2,6,2x,,2,,2,,2,,
{16}D4f/6x,,6h[8:1],,3,,3h[8:1],,7h[16:1],,4,,56,,56,,
{16}4x,5,4,5,4,,36,,18,,45,,27,,36,,
{16}3x/6x,,7,1,8-4[8:1],,8,,8,,1x,2x,3x,,5b,,
{16}4x/5x,,23,,45,,67,,7-4[8:1],,7,4,7,,2,,
{64}E5,B5/B4,E7/C/E3,B8/B1,E1,,,,,,,,,,,,E7,B6/B7,C,B3/B2,E3,,,,,,,,,,,,
{16}5xs1[4:1]/4s8[4:1],,5,4,5,,,,
{16},,1,8,1,,36,,37,,2,8,1,,45,,
{8}8x/1x,36,27,45,{16}81,,3,6,3,,81,,
{8}5x/4x,27,36,18,{16}54,,2,7,2,,B8/B1,,
{16}4hb[16:7]/5bx,,,,,,5x,,3/6x,,3,,7x/2h[16:1],,,,
{8}7h[16:3]/2x,,6h[16:3],2x,{16}5h[16:3],2x,,,{8}2x/4h[16:3],,
{8}5x,5x/1h[16:1],5x,5x/2,5x/3,5x,5x,{16}3h[16:1],,5x,4h[16:1],5x,,5x/3h[16:1],,5x/2h[16:1],,5x/1h[16:2],,,,5x/1h[16:2],,,,
{16}1h[16:3]/7x,,,,7x/2h[16:2],,7x,,7x/3h[16:3],,,,7x/4h[8:1],,,,
{16}5h[16:3]/3x,,,,3x/6h[16:2],,3x,,3x/7h[16:3],,,,3x/8h[8:1],,,,
{16}4x/1h[16:3],,,,4x/2h[16:2],,4x,,4x/3h[16:6],,,,7x,,,,
{16}2x/5h[16:3],,,,2x/6h[16:2],,2x,,2x/7h[16:3],,,,2x/8h[8:1],,,,
{16}4,,3,,2,,3,5,4,,5,,6,,7,,
{16}3,4,2,,Ch[8:1],,,,,,E6/B6/B7/E8,,E4/E2/B2/B3,,,,
{32},,,,E6/E2,B6/B2,B7/B3/C,E8/E4,,,,,,,,,E4/E8,B3/B7,B2/B6/C,E2/E6,,,,,,,,,
{16}4,,3,5,3,,4,,8b,,,,4x,,,,,
{32}2x,3x,
{4}4xpp4[4:1]*-2[4:1],,,,
{1}8xpp8[4:1]*-6[4:1],
{1}6<2v4[2:1],
{8}4,,4,,,,4,,
{1}1-4-8-5[16:107]/Cf,{4}2,,2,2,{1}3,4,{8}5,5,5,,,,,,{1}6,{8}7,,,,,,7,7,{1}7,
{8}7h[4:3],,,,,,,,3,,,,6,,4,5,
{8}2qq6[4:3],,,,,,,,8,,8,,,,,,
{8}2,6,4h[4:4],,,,5h[8:3],,
{8},,,,3h[8:3]/5h[8:2],,,,
{8}4,5h[1:1],,4,3,,3,2,,1,5,1,5,,Ch[4:1],,,,,,6<2v4[2:1],,,,,,,,C,,,,
{16}1x,2x,3x,,,,,,,,,,,,,,
{8},,,,5,,6,,7p4[1:1],,,,C,,,,,,,,
{8}7,,8,,
{16}2x,3x,4x,,,,,,,,,,,,,,
{8},,,,1,,2,,3pp8[1:1],,,,C,,6,,6,,5,,
{8}6,,5,,
{16}6x,7x,8x,,,,,,,,,,,,,,,,,,,,,,
{8}35,,26,,8p4[1:1],,,,C,,2,,2,,,2,,,2,6,3,,,5,,4,,5,3,51,48,73,51,8b,8b/4b,7b/3b,6b^5-8-4-1^2^1-4-8-5^6b[1:7]/Cf,,,,,,,,,,,,,,,,,,,,,,,,
{1}Ch[1:2],,,,,,,,,,,,,{4},E
