&title=Alcoholic
&artist=CupcakKe
&first=0
&des=AoihosHi
&lv_5=13
&inote_5=(115)
{1},
{16}
5/4h[8:1],,,,4h[8:1],,,,5/4h[8:1],,,,4h[8:1],,,,
{24}5/2,,,2,4,,{16}2,,2,,5/2,,2,,2,,2,,
5/3h[8:1],,5,,5/3h[8:1],,5,,5/3h[8:1],,5,,5/3h[8:1],,5,,
1V36[4:1],,,,6V41[4:1],,,,1w5[8:1],,,,,,,,
3b/4b-6[12:1],,3,,24,,2,,2/4-7[12:1],,2,,14,,1,,
1/4-8[12:1],,1,,24,,2,,2/4-1[12:1],,2,,34,,3,,
3/4-2[12:1],,3,,45,,5,,5/4-1[12:1],,5,,48,,8,,
2V47[4:1],,,,7V52[4:1],,,,2-6[12:1],,,,8,,,,
6/5-3[12:1],,7,,75,,7,,7/5-2[12:1],,8,,85,,8,,
8/5-1[12:1],,7,,75,,7,,7/5-8[12:1],,6,,65,,6,,
6/5-7[12:1],,4,,54,,4,,4/5-8[12:1],,1,,51,,1,,
7V52[4:1],,,,2V47[4:1],,,,7-3[12:1],,,,1,,,,
{24}24,,,1,,,4/7-3[12:1],,6,5,,,2-8[12:1],,,1,,,5,,,6,,,
7^4[12:1],,,8,,,2-6[12:1],,,3,,,7^4[12:1],,,1^4[12:1],,,7,,,1,,,
6-1[12:1],,,7,,,3-6[12:1],,,4,,,8V64[8:1],,,1,,,3,,,2,,,
1^4[12:1],,,,,,1^6[12:1],,,,,,1-5[12:1],,,,,,1,,,,,,
7-4[8:1]/5,,,8,,,2-6[12:1],,,3,,,7-1[12:1],,,8,,,4,,,3,,,
2^5[12:1],,,1,,,7-3[12:1],,,6,,,2-6[12:1],,,8-4[12:1],,,2,,,8,,,
3-8[12:1],,,1,,,6-3[12:1],,,4,,,1V35[8:1],,,8,,,6,,,7,,,
8^5[12:1],,,,,,8^3[12:1],,,,,,8-4[12:1],,,,,,8b,,,,,,
{16}2-5[12:1],4,3,,2/6,7,8,,1V35[8:1]/5,,37,,15,,7,7,
5,,48,,3,5,2,6,1^4[12:1],7,8,,15,,6,,
7-3[12:1],,58,,37,,1h[8:1],,4-8[12:1],3,5,,4/2qq7[8:3],,3,,
4h[8:3],,,,,,,,2-5[12:1]/6-1[12:1],,15,,26,,,,
7-4[12:1],5,6,,7/3,2,1,,8V64[8:1]/4,,62,,84,,2,2,
4,,51,,6,4,7,3,8^5[12:1],2,1,,84,,3,,
2-6[12:1],,41,,62,,8h[8:1],,4-8[12:1],5,3,,4/2qq7[8:3],,3,,
4h[8:3],,,,,,,,2v5[12:1]/6-1[12:1],,15,,26,,,,
1b/7h[8:1],,1,,1/3h[8:1],,1,,1/8h[8:1],,1,,1/4h[8:1],,1,,
1/6h[8:1],,1,,1/2h[8:1],,1,8,1-5[12:1],,3,4,1,,6,,
7,5,6,4,5-8[12:1],3,4,,15,,3,,5b/8b,,3,4,
2-6[12:1],,17,,26,,7-5[12:1],5,1-5[12:1],,7,,1,,8,,
1h[8:1]/7,,7,,6h[8:1]/7,,7,,3h[8:1]/7,,7,,87,,7,8,
7,,16,,2-5[12:1],5,8-4[12:1],,2^7[12:1],,8,,2,,6-8[12:1],,
3,3,6-4[12:1],,1,1,6,,2-6[12:1],,35,,26,,7,7,
8-2[16:1]*-3[16:1],,,,8-5[12:1]*-6[12:1],,,,8-4[12:1],,,,8,,,,
2h[8:1]/4,,1,3,48,,56,,7,8,6,1h[8:1],,5,4,6,
2,2,1,1,3h[8:1],,4,2,7-4[12:1],5,8,4,,2,2,,
1,8,2h[8:1],,6,6,5,5,7,8,6,1h[8:1],,4,3,4,
2-6[12:1]/5,,14,,26,,7,7-3[12:1],8,8,,37,,2,1,2,
3/8^5[12:1],,4,4,8,1h[16:3],,,4-8[12:1],4,2,2,4,3,,,
1-5[12:1],1,28,,1,,7,7,5,5,6,6,78,16,,,
2,4,2,4,1-5[12:1]/5,,3,8,1,,7,7,8,16,,,
4-6[12:1]*-7[12:1],,,,4-1[12:1]*-2[12:1],,,,4-8[12:1],,,,4b,,,,
2-5[12:1]/7,16,58,,2/6,7,8,,1V35[8:1]/5,,37,,15,,7,7,
5,,48,,3,4,2,6,5-1[12:1],8,3-8[12:1],,5,,3,,
7-3[12:1],,58,,37,,1h[8:1],,4-8[12:1],3,5,,4/2qq7[8:3],,3,,
4h[8:3],,,,,,,,2-5[12:1]/6-1[12:1],,15,,26,,,,
7-4[12:1]/2,83,41,,7/3,2,1,,8V64[8:1]/4,,62,,84,,2,2,
4,,51,,6,5,7,3,4-8[12:1],1,6-1[12:1],,4,,6,,
2-6[12:1],,41,,62,,8h[8:1],,4-8[12:1],5,3,,4/2qq7[8:3],,3,,
4h[8:3],,,,,,,,2v5[12:1]/6-1[12:1],,15,,26,,,,
3b/7b-4[12:1],,4-8[8:1]/8,,3,,2,,1-5[12:1],,5-2[12:1]/2,,8,,7,,
6-1[12:1],,1-5[12:1]/5,,2,,3,,4^1[12:1],,7^4[12:1],,4,,7,,
2-5[12:1],,5-1[8:1]/1,,6,,7,,8-4[12:1],,37,,28,,1,,
2-4[12:1]/8-4[12:1],,,,2-6[12:1]/8-6[12:1],,,,2v5[12:1]/8v5[12:1],,,,28,,,,
6/2-5[12:1],,5-2[8:1]/1,,6,,7,,8-4[12:1],,4-8[12:1]/7,,1,,2,,
3-8[12:1],,8-3[12:1]/4,,7,,6,,5^8[12:1],,2^5[12:1],,5,,2,,
7-4[12:1],,4-7[8:1]/8,,3,,2,,1-5[12:1],,62,,71,,8,,
7-5[12:1]/1-5[12:1],,,,7-3[12:1]/1-3[12:1],,,,7v4[12:1]/1v4[12:1],,,,71,,,,
6b/2h[8:1],,5,,3h[8:1]/4,,1,,8/2h[8:1],,4,3,5/1h[8:1],,4,,
2/3h[8:1],,1,,8h[8:1]/5,,6,,5h[8:1]/7,,8,1,2/7h[8:1],,8,,
5h[8:1]/6,,7,,8h[8:1]/4,,3,,4/2h[8:1],,1,2,7/3h[8:1],,4,,
2V47[4:1],,,,7V52[4:1],,,,2-6[12:1],,,,8,,,,
3/7h[8:1],,4,,6h[8:1]/5,,8,,1/7h[8:1],,5,6,4/8h[8:1],,5,,
7/6h[8:1],,8,,1h[8:1]/4,,3,,4h[8:1]/2,,1,8,7/2h[8:1],,1,,
4h[8:1]/3,,2,,1h[8:1]/5,,6,,5/7h[8:1],,8,7,2/6h[8:1],,5,,
7V52[4:1],,,,2V47[4:1],,,,7-3[12:1],,,,1s5[2:3],,,,
6h[1:2],,,,,,,,,,,,,,,,
,,,,,,,,,,,,,,,,
