&title=Hand in Hand
&artist=livetune; 初音ミク
&first=0.48999983
&des=伍舟之雨
&lv_6=13
&inote_6=(64)
{8},,4/5,4,4,4,2,2,2,2,8,8,8,8,6,6,6,6,6h[8:3],4,4,4h[8:1],2h[8:3],4,4,4h[8:1],8h[16:6],4,3,2,1h[8:2]/8,8,8,2b/7b,
{8}4<7[12:1]/3q8[12:1],7<4[12:1]/8,,1h[8:2],3,8p3[12:1],6,2b,5>2[12:1]/6p1[12:1],1/2>5[12:1],,8h[8:2],6,1q6[12:1],3,7b,7-2[12:1]/3-6[12:1],2/6-3[12:1],,8h[8:3],2,4,
{8}6qq3[16:3],8,1h[16:2],,2qq7[16:3],4,5h[32:3],5h[32:3],5h[32:3],1b/8b,4-8[12:1]/3-1[12:1],1-5[12:1]/8-6[12:1],,,
{16}3/4,2,{32}8,5,6,4,7h[16:1],,5h[16:1],,3,,,,
{8}6-8[12:1]/5-1[12:1],1-3[12:1]/8-4[12:1],,,
{16}5/6,7,{32}1,4,3,5,2h[16:1],,4h[16:1],,6,,,,
{8}6-8[12:1]/5-1[12:1],1-3[12:1]/8-4[12:1],,,
{16}6/5,7,{32}4,6,3,5,2h[16:1],,4h[16:1],,6,,,,
{8}3-1[12:1]/4-8[12:1],1-5[12:1]/8-6[12:1],,,2h[32:3]/4h[32:3],1h[32:4],8h[32:4],7b,
{16}2/6,,6,4,5/2,{32},3,4,,2,,{8}1>4[12:1]/8q5[12:1],5/4pp6[12:1],1/8,8b,7/5,
{16}2/4,1,4/7,{32},6,5,,7,,{8}1p4[12:1]/8<5[12:1],4/5qq3[12:1],1/8,1b,2/4,
{16}7/5,1,2/3,{32},5,4,,7,,{8}6p1[12:1]/5>2[12:1],1/2>6[8:1],6/5,6,1p5[12:1],
{16}7/5,3,{8}1/2>2[8:2],{16}4/3,6,{8}7h[8:2],,,4/5,2V47[8:1],7V52[8:1],7/2,1,8V62[8:1],2V48[8:1],8/2,8,1V36[8:1],6V48[8:1],6/1,7,7V53[8:1],3V17[8:1],7/3,5b,
{16}4-2[32:1],4-6[32:1],4-1[24:1],4-7[24:1],,,,,8-6[32:1],8-2[32:1],8-5[24:1],8-3[24:1],,,,,
{32}5,4,5,4,6,3,6,3,7,2,7,2,8,1,8,1,
{8}8h[32:3],1h[32:3]/7h[32:3],6h[32:3]/2h[32:3],5b/3b,
{16}1V38[8:1]/4,,7/8V61[8:1],,3/1,{32},4,,,3,,2,,4/3,,7-3[16:1],,6/5,,
{8}1/8,7/4,8V61[8:1]/5,1V38[8:1]/2,{32}6/8,,,5,,,6,,4b>7[256:27],,,,6<1[12:1],,1,,6/4,,,,5,,,,
{8}3/4V25[8:1],1/5V74[8:1],{32}7/4,,,8,,,1,,8,,6/5,,1-5[16:1],,4/3,,7/8,,,,1/2,,,,
{8}6q3[12:1]/2<7[12:1],7/3p6[12:1],2/6,,{32}1h[32:4],,,3,3h[32:4],,,5,5h[32:4],,,,7b,,,,
{8}1V37[8:1]/3,7V51[8:1]/8,{32}1/5,,,4,4<8[12:1]*>8[12:1],,,,8<8[16:3],,,,4,,,,,,,,8b,,,,
{8}8V62[8:1]/6,2V48[8:1]/1,{32}8/1,,,5,5>1[12:1]*<1[12:1],,,,1>1[16:3],,,,5,,,,,,,,1b,,,,
{8}2/4V26[8:1],5/6V84[8:1],{32}5/4,,,4,4>8[12:1]*<8[12:1],,,,8>8[16:3],,,,4,,,,
{8},1h[8:1],3h[8:2],6v1[12:1],2v5[12:1]*v5[12:1],6,{32}2,,,8,8h[32:4],,,6,6h[32:4],,,4,4b,,,,
{8}7<5[12:1]/3>1[12:1],1>5[48:4]/5,,
{16}7h[16:3],,6,8,{32}6,1,4,3,7h[16:1],,5h[16:1],,1,,,,
{8}2>4[12:1]/6<8[12:1],8<4[48:4]/4,2/6,
{16}2h[16:3],,3,1,{32}3,8,5,6,2h[16:1],,4h[16:1],,8,,,,
{8}2-4[12:1]/6-8[12:1],8-4[12:1]/4,2/6,2h[8:1],
{16}3,1,{32}4,6,3,8,4h[16:2],,6,,2,,,,
{8}1-3[12:1]/5-7[12:1],7-3[12:1]/3,1/5,1h[8:1],
{8}2h[32:3],3h[32:3]/1h[32:3],8h[32:3]/4h[32:3],7b/5b,1p4[12:1]/8<5[12:1],4/5<8[12:1],1/8,3,{32}2,,8,,6qq6[32:3],4,5,3,7,,1,,6,,,,
{8}1>4[12:1]/8q5[12:1],4>1[12:1]/5,1/8,6,{32}7,,1,,3pp3[32:3],5,4,6,2,,8,,3,,,,
{16}8<5[16:1],8>3[16:1],8v5[16:1],8v3[16:1],,,,,4>1[16:1],4<7[16:1],4v1[16:1],4v7[16:1],,,,,
{32}4,5,4,5,3,6,3,6,2,7,2,7,1,8,1,8,1h[32:3],,,,
{8}2h[32:3]/8h[32:3],7h[32:3]/3h[32:3],6z2[8:15]/4z8[8:15],8b/2b,
