&title=アマオト
&artist=Duca
&first=0.55
&lv_5=13+
&des_5=星辰凝霜
&inote_5=
(172){4},,,,,,,,,,,,1<7[0.6977##0.3488]*>3[0.6977##0.3488],
1,{2}1-5[0.6977##0.3488]*-5[0.6977##0.3488],
1,Ch[4:1],
{4}8<6[0.6977##0.3488]*>2[0.6977##0.3488],8,{2}8-4[0.6977##0.3488],
8,Ch[4:1],
{4}4>2[0.6977##0.3488]*<6[0.6977##0.3488],4,{2}4-8[0.6977##0.3488]*-8[0.6977##0.3488],
4,Ch[4:1],
{4}5>3[0.6977##0.3488]*<7[0.6977##0.3488],5,{12}5-1[0.6977##0.3488]*-1[0.6977##0.3488],{3},{12}5,
5,{3},{12}6,{6}5,{12}5,4,{6},{4}5v7[0.6977##0.3488]*v3[0.6977##0.3488],
7/3,{2}5-1<7[0.6977##0.3488]*-1>3[0.6977##0.3488],
5,7h[6:1]/3h[4:1],
{4}4v6[0.6977##0.3488]*v2[0.6977##0.3488],6/2,{2}4-8<6[0.6977##0.3488]*-8>2[0.6977##0.3488],
4,6h[6:1]/2h[4:1],
{4}1qq7[0.6977##0.3488]*pp3[0.6977##0.3488],7/3,{2}1-5<7[0.6977##0.3488]*-5>3[0.6977##0.3488],
1,{12}3,4,5,6,{6},{4}8qq6[0.6977##0.3488]*pp2[0.6977##0.3488],
6/2,{2}8-4<6[0.6977##0.3488]*-4>2[0.6977##0.3488],
8,{12}7,8,1,2,{6},{4}8-6[0.6977##0.3488]/1-6[0.6977##0.3488],
6/3,{2}8-3[0.6977##0.3488]/1-3[0.6977##0.3488],
8/1w5[0.6977##0.3488]*w5[0.6977##0.3488],1,
{4}8-4[0.6977##0.3488]/7-3[0.6977##0.3488],1/6,{2}7-5[0.6977##0.3488]/8-2[0.6977##0.3488],
8/7w3[0.6977##0.3488]*w3[0.6977##0.3488],7,
{4}6<8[0.6977##0.3488]/2<8[0.6977##0.3488],8/4,{2}2v4[0.6977##0.3488]/6v4[0.6977##0.3488],
2<6[0.6977##0.3488]/6<2[0.6977##0.3488],2/6,
{4}1-7[0.6977##0.3488]*-3[0.6977##0.3488],7/3,{2}1-5[0.6977##0.3488],
{6}1,{12}6,6,,3,{2}3,
{4}B4/5<5[0.6977##2.093],E3,{2}E1,
E7,E5,
{4}1-7[0.6977##0.3488],7-3[0.6977##0.3488],{2}1/3V15[0.6977##0.6977],
4,{4}8h[4:1],4,
8-4[0.6977##0.3488]/1-5[0.6977##0.3488],5<8-4[0.6977##0.6977]/4>1-5[0.6977##0.6977],{2}8/1,
,{4}5/1,{8}7-3[0.6977##0.3488],2,
{4}8,{12}7<5[0.6977##0.3488],,1,{6},{12}3,7,,,,,,{4}C,
{2}7b/3b,
{4}5h[2:1]/8q4[0.6977##0.3488],8,{2}8,
{4}2h[2:1]/7p3[0.6977##0.3488],7,{2}7,
{4}7h[2:1]/4p8[0.6977##0.3488],4,{2}4,
{4}3h[2:1]/6q2[0.6977##0.3488],6,{2}6,
{4}5/8-4[0.6977##0.1744],3/6-2<3[0.6977##1.0465],8,6,
{2},1w5[0.6977##0.3488],
1,7/3,
{4}Ch[2:1],B1,B4,1/5,
4/5,1-4[0.6977##0.3488]/8-5[0.6977##0.3488],5<7-3[0.6977##0.6977]/4>2-6[0.6977##0.6977],8/1,
,,,C,
1w5[0.6977##0.3488],5-8[0.6977##0.3488]*-2[0.6977##0.3488],{2}1,
{4},8/1,B7/B6/B2/B3/B5/B4/B8/B1/C,{12}5/7-4[0.6977##0.3488],,7,
{4}1,7,3,{12}4/5-1[0.6977##0.3488],,5,
{6}6,{12}8,5,{6},7h[4:1],{12}3,3,{6},{4}1<7[0.6977##0.3488]*>3[0.6977##0.3488],
3/7-3[0.6977##0.3488],{2}1-5[0.6977##0.3488],
{4}1,7,7,C,
8p4[0.6977##0.3488]*q4[0.6977##0.3488],4>8[0.6977##0.3488],{2}8<4[0.6977##0.3488],
4-8[0.6977##0.3488],4/2,
{4}1-5[2:5],{12}7,,7,{6}6,{12}6,5,,5,
{6}4,{12}4,3,,3,{6}2,{12}2,1,,1,
{6}8-4[0.6977##0.1744],{12}8,7,{6},{2}8,
{6}8b/7b,1b/4b,,1b/2b,8b/5b,,{4}5-1[0.6977##0.3488]*>1[0.6977##0.3488],
1<5>1[0.6977##0.6977],{2}5,
{4}1-5[0.6977##0.3488]*<5[0.6977##0.3488],5>1<5[0.6977##0.6977],{2}1,
{4}5-1[0.6977##0.3488]*>1[0.6977##0.3488],1<5>1[0.6977##0.6977],{2}5,
{4}1w5[0.6977##0.3488],5>1[0.6977##0.3488],{2}1,
{4}8<4[0.6977##0.3488],4>8[0.6977##0.3488],8-4[0.6977##0.3488],8b<4[0.6977##0.3488],
4>8[0.6977##0.3488],8-4[0.6977##0.3488],{2}8,
{4}1>5[0.6977##0.3488]*-5[0.6977##0.3488],5<1>5[0.6977##0.6977],{2}1,
{4}5-1[0.6977##0.3488],1>5[0.6977##0.3488],{2}5,
{4}8<4[0.6977##0.3488]*-4[0.6977##0.3488],4>8<4[0.6977##0.6977],{2}8,
{4}4-8[0.6977##0.3488]*>8[0.6977##0.3488],8<4>8[0.6977##0.6977],{2}4,
{4}8-4[0.6977##0.3488]*<4[0.6977##0.3488],4>8<4[0.6977##0.6977],{2}8,
{4}4w8[0.6977##0.3488],8,{2}4,
{4}8>4[0.6977##0.3488]*-4[0.6977##0.3488],4<8>4[0.6977##0.6977],{2}8,
{4}4-8[0.6977##0.3488]*<8[0.6977##0.3488],8>4<8[0.6977##0.6977],{2}4,
{4}8-4[0.6977##0.3488]*>4[0.6977##0.3488],4<8[0.6977##0.3488],{2}8,
{24}1x,2x,3x,4x,5x,6x,7x/3b,8x,1x,2x,3x,4x,5x/1b,6x,7x,8x,1x,2x,{4}7b/3bh[4:1],
5<7[0.6977##0.3488]*>3[0.6977##0.3488],7/3,{2}5v3v1[0.6977##0.6977]*v7v1[0.6977##0.6977],
{4}5,{2},{12}8/1-5[0.6977##0.3488],2,3,
{4}4/5>1[0.6977##0.3488],{12}5/1,6,7,8h[4:1],{3},{12}2,
{6}4,{12}4,5,,5,{4}7,7/3,
8<6[0.6977##0.3488]*>2[0.6977##0.3488],6/2,{2}8v6v4[0.6977##0.6977]*v2v4[0.6977##0.6977],
8,{4}A4,C,
{6}2/8-4[0.6977##0.3488],{12}3,4<8[0.6977##0.3488],,2,{4}8,3-7[0.6977##0.3488],
{6}2,{12}5,3,,6,{6}6,6/8,,{4}1p5[0.6977##0.3488]*q5[0.6977##0.3488],
5<1[0.6977##0.3488],{2}1>5[0.6977##0.3488],
{4}5<1[0.6977##0.3488]*q1[0.6977##0.3488],1>5[0.6977##0.3488],{2}5p1[0.6977##0.3488],
{4}1p5[0.6977##0.3488]*<5[0.6977##0.3488],5>1[0.6977##0.3488],{2}1>5[0.6977##0.3488],
{4}5-1[0.6977##0.3488]*<1[0.6977##0.3488],7,{2}5,
{4}6pp7[0.6977##0.3488]/3qq2[0.6977##0.3488],7/2,{2}3/6,
{4}5pp7>1[0.6977##0.3488]*qq3>1[0.6977##0.3488],7/3,{2}5,
{4}8<6v4[0.6977##0.3488]*>2v4[0.6977##0.3488],6/2,{2}8,
{12}3,5,1,4,8,6,2,7,3,8h[4:1],{6},{2}1>1[0.6977##3.4884],
E1,
E7,E5,
E3,C,
{4}5,2-6b[0.6977##0.1744]*-6b[0.6977##0.1744],{6}7b/6w2b[0.6977##0.6977]*w2b[0.6977##0.6977]*w2b[0.6977##0.6977]*w2b[0.6977##0.6977],2b/3b,
E
